<?xml version="1.0" standalone="no"?>
<!DOCTYPE svg PUBLIC "-//W3C//DTD SVG 1.1//EN" "http://www.w3.org/Graphics/SVG/1.1/DTD/svg11.dtd" >
<svg xmlns="http://www.w3.org/2000/svg">
<metadata>Generated by IcoMoon</metadata>
<defs>
<font id="icomoon" horiz-adv-x="1024">
<font-face units-per-em="1024" ascent="960" descent="-64" />
<missing-glyph horiz-adv-x="1024" />
<glyph unicode="&#x20;" horiz-adv-x="512" d="" />
<glyph unicode="&#xe900;" glyph-name="address1" d="M783.528 235.779c149.965 151.035 149.965 395.911 0 546.945-149.96 151.035-393.096 151.035-543.057 0s-149.961-395.91 0-546.945l207.64-209.126c35.285-35.54 92.493-35.54 127.778 0l207.639 209.126zM512 380.8c-74.851 0-135.529 60.173-135.529 134.4s60.679 134.4 135.529 134.4c74.851 0 135.529-60.173 135.529-134.4s-60.679-134.4-135.529-134.4z" />
<glyph unicode="&#xe901;" glyph-name="Calendly" d="M756.107 405.034l1.924-0.373 167.344-30.016c20.495-3.733 34.267-23.183 28.833-43.12-28.789-105.77-95.751-197.44-188.233-257.68-92.477-60.24-204.064-84.882-313.663-69.266s-209.616 70.415-281.144 154.032c-71.527 83.616-109.609 190.256-107.045 299.762s45.595 214.287 120.958 294.538c75.363 80.25 177.838 130.409 288.050 140.992s220.526-19.141 310.091-83.554c89.556-64.413 152.159-159.051 175.967-266.024 4.491-20.085-10.189-38.938-30.837-41.701l-128.395-17.024v-0.261h0.271l-0.38-0.038c-4.184-0.565-8.36-1.162-12.529-1.792l-9.552-1.493c-13.583-2.016-31.32-4.331-50.531-5.040-35.816-1.269-88.012 2.539-123.79 37.968-1.86 1.845-3.709 3.699-5.548 5.563-18.908 19.077-39.1 39.499-80.992 39.499-39.968 0-67.179-11.35-84.313-28.15-17.096-16.799-28.91-43.568-28.91-83.85 0-39.2 11.7-66.155 29.060-83.253 17.285-17.173 44.534-28.747 84.163-28.747 29.249 0 40.571 6.534 51.177 14.038 2.188 1.568 4.68 3.472 7.51 5.6 12.831 9.893 32.419 24.864 61.479 34.459 35.854 11.797 73.217 17.173 118.73 13.253l0.19 1.083 0.117 0.598zM809.925 319.467l57.329-10.267c-32.892-81.228-93.579-148.446-171.459-189.926-77.883-41.479-168.020-54.579-254.675-37.018-86.654 17.554-164.322 64.666-219.445 133.091-55.123 68.432-84.2 153.839-82.155 241.314s35.083 171.461 93.346 237.297c58.263 65.836 138.050 109.339 225.432 122.917s176.81-3.635 252.671-48.632c75.864-44.996 133.339-114.919 162.392-197.561l-59.699-7.952c-26.792 67.798-76.478 124.333-140.625 160.004s-138.798 48.276-211.275 35.676c-72.477-12.6-138.309-49.628-186.318-104.797s-75.231-125.074-77.045-197.845c-1.814-72.771 21.893-143.919 67.095-201.36s109.109-97.634 180.871-113.755c71.761-16.113 146.95-7.161 212.796 25.337s118.289 86.543 148.424 152.953l2.077-0.485 0.263 1.008zM728.743 329.958c-23.058 0.263-45.993-3.36-67.82-10.715-15.927-5.227-23.853-11.2-35.552-20.048-3.888-2.986-8.228-6.235-13.436-9.893-22.38-15.829-48.836-27.963-95.031-27.963-54.725 0-102.995 16.426-137.566 50.586-34.571 34.235-51.139 81.91-51.139 136.080 0 54.88 16.456 102.778 51.253 136.863 34.722 34.048 83.030 49.803 137.452 49.803 74.915 0 115.6-41.963 135.074-61.973v-0.037c1.774-1.867 3.397-3.509 4.83-4.928 11.927-11.797 35.212-17.322 67.67-16.128 3.888 0.149 7.733 0.374 11.508 0.672-16.962 34.929-42.211 65.283-73.593 88.478s-67.966 38.542-106.636 44.735c-38.671 6.192-78.282 3.047-115.459-9.168s-70.818-33.139-98.058-60.989c-24.035-24.552-42.505-53.889-54.178-86.057s-16.28-66.427-13.516-100.495c2.765-34.068 12.838-67.161 29.548-97.075s39.675-55.962 67.362-76.406c27.687-20.444 59.461-34.817 93.205-42.16s68.682-7.483 102.486-0.424c33.804 7.066 65.698 21.178 93.557 41.394s51.041 46.073 68.002 75.849h0.038z" />
<glyph unicode="&#xe902;" glyph-name="copy" d="M704 768c0 47.128-38.204 85.333-85.333 85.333h-426.667c-47.128 0-85.333-38.205-85.333-85.333v-426.667c0-47.13 38.205-85.333 85.333-85.333h64c11.782 0 21.333 9.553 21.333 21.333v21.333c0 11.78-9.551 21.333-21.333 21.333h-64l-2.488 0.145c-10.61 1.229-18.845 10.249-18.845 21.188v426.667l0.143 2.488c1.233 10.61 10.249 18.845 21.19 18.845l429.154-0.143c10.611-1.233 18.846-10.249 18.846-21.19v-64c0-11.782 9.553-21.333 21.333-21.333h21.333c11.78 0 21.333 9.551 21.333 21.333v64zM832 640c47.13 0 85.333-38.205 85.333-85.333v-426.667c0-47.13-38.204-85.333-85.333-85.333h-426.667c-47.128 0-85.333 38.204-85.333 85.333v426.667c0 47.128 38.205 85.333 85.333 85.333h426.667zM834.487 575.857l-2.487 0.143h-426.667c-10.941 0-19.957-8.236-21.19-18.845l-0.143-2.488v-426.667c0-10.94 8.236-19.959 18.845-21.188l2.488-0.145h426.667c10.94 0 19.959 8.235 21.188 18.846l0.145 2.487v426.667c0 10.941-8.235 19.957-18.846 21.19z" />
<glyph unicode="&#xe903;" glyph-name="email2" d="M73.301 764.077c-9.301-18.254-9.301-42.149-9.301-89.94v-452.265c0-47.792 0-71.687 9.301-89.944 8.181-16.055 21.236-29.111 37.292-37.288 18.254-9.304 42.149-9.304 89.941-9.304h622.931c47.792 0 71.687 0 89.944 9.304 16.055 8.177 29.111 21.233 37.288 37.288 9.304 18.256 9.304 42.152 9.304 89.944v452.265c0 47.791 0 71.687-9.304 89.94-8.177 16.057-21.233 29.111-37.288 37.292-18.256 9.301-42.152 9.301-89.944 9.301h-622.931c-47.792 0-71.687 0-89.941-9.301-16.056-8.181-29.111-21.235-37.292-37.292zM273.75 645.295l238.25-158.833 238.249 158.833c14.709 9.803 34.575 5.83 44.376-8.875s5.829-34.572-8.872-44.376l-256.002-170.666c-10.748-7.166-24.752-7.166-35.501 0l-256 170.666c-14.705 9.803-18.678 29.671-8.875 44.376s29.671 18.678 44.376 8.875z" />
<glyph unicode="&#xe904;" glyph-name="facebook3" d="M745.318 891.681v-142.583h-84.792c-30.972 0-51.861-6.476-62.668-19.427s-16.21-32.388-16.21-58.312v-102.072h158.243l-21.053-159.867h-137.19v-409.911h-165.259v409.91h-137.71v159.867h137.709v117.731c0 66.964 18.724 118.905 56.171 155.821 37.445 36.917 87.312 55.375 149.6 55.375 52.931 0 93.983-2.155 123.16-6.464v-0.069z" />
<glyph unicode="&#xe905;" glyph-name="fax1" d="M213.339 810.663c0 23.564 19.103 42.667 42.666 42.667h423.459c9.017 0 17.802-2.857 25.095-8.161l88.542-64.394c11.037-8.029 17.569-20.855 17.569-34.506v-63.606c0-23.564-19.105-42.666-42.664-42.666h-512.001c-23.564 0-42.666 19.103-42.666 42.666v128zM320.006 149.328c0 35.35 28.654 64 64 64h256c35.346 0 64-28.65 64-64v-42.664c0-35.35-28.654-64-64-64h-256c-35.346 0-64 28.65-64 64v42.664zM170.672 597.331c-47.128 0-85.333-38.205-85.333-85.334v-298.669c0-47.126 38.205-85.328 85.333-85.328h106.667v42.664c0 47.126 38.205 85.333 85.333 85.333h298.667c47.128 0 85.332-38.207 85.332-85.333v-42.664h106.664c47.133 0 85.336 38.203 85.336 85.328v298.669c0 47.128-38.203 85.334-85.336 85.334h-682.663zM725.339 533.331c0 11.782 9.549 21.333 21.332 21.333h85.336c11.783 0 21.328-9.551 21.328-21.333s-9.545-21.334-21.328-21.334h-85.336c-11.783 0-21.332 9.551-21.332 21.334z" />
<glyph unicode="&#xe906;" glyph-name="ins3" d="M704.012 767.997c70.695 0 128.003-57.307 128.003-128v-384c0-70.69-57.307-127.997-128.003-127.997h-384c-70.693 0-128 57.307-128 127.997v384c0 70.693 57.307 128 128 128h384zM320.012 853.331c-117.821 0-213.333-95.513-213.333-213.334v-384c0-117.823 95.512-213.333 213.333-213.333h384c117.821 0 213.331 95.51 213.331 213.333v384c0 117.821-95.51 213.334-213.331 213.334h-384zM405.345 447.997c0 58.91 47.756 106.666 106.666 106.666s106.667-47.756 106.667-106.666c0-58.911-47.756-106.666-106.667-106.666s-106.666 47.756-106.666 106.666zM512.012 639.997c-106.038 0-192-85.961-192-192s85.962-192 192-192c106.039 0 192 85.961 192 192s-85.961 192-192 192zM661.345 650.663c0 29.455 23.878 53.334 53.334 53.334s53.336-23.878 53.336-53.334c0-29.455-23.881-53.333-53.336-53.333s-53.334 23.877-53.334 53.333z" />
<glyph unicode="&#xe907;" glyph-name="link1" d="M546.354 805.751c95.778 93.046 248.161 91.708 342.31-2.988 93.952-94.503 95.261-247.154 2.97-343.274-0.212-0.218-0.424-0.433-0.636-0.647l-115.134-115.811c-50.025-50.328-119.411-76.406-190.156-71.309-70.744 5.096-135.687 40.84-178.037 97.787-17.156 23.069-12.34 55.661 10.756 72.797s55.726 12.325 72.881-10.743c24.356-32.75 61.56-53.14 101.895-56.046 40.331-2.905 80.007 11.941 108.717 40.829l114.809 115.48c52.868 55.38 52.005 143.296-1.997 197.611-53.819 54.139-140.649 54.973-195.487 1.957l-65.73-65.729c-20.332-20.332-53.315-20.351-73.671-0.042s-20.374 53.253-0.042 73.585l66.553 66.545zM248.147 552.982c50.022 50.329 119.401 76.399 190.145 71.303s135.688-40.841 178.038-97.788c17.156-23.069 12.34-55.661-10.756-72.796s-55.726-12.326-72.882 10.742c-24.355 32.75-61.559 53.14-101.895 56.046-40.331 2.905-80.008-11.941-108.717-40.828l-114.809-115.48c-52.868-55.38-52.005-143.297 1.995-197.613 53.808-54.118 140.597-54.974 195.439-2.004l65.29 65.671c20.272 20.391 53.255 20.506 73.67 0.257s20.53-53.194 0.257-73.586l-65.634-66.011c-0.212-0.219-0.427-0.432-0.643-0.636-95.779-93.052-248.162-91.714-342.308 2.984-93.954 94.501-95.267 247.154-2.97 343.274 0.208 0.218 0.419 0.434 0.632 0.647l115.147 115.818z" />
<glyph unicode="&#xe908;" glyph-name="linkedin1" d="M130.701 643.18h173.759v-577.826h-173.759v577.826zM218.031 874.669c-23.877 0-46.777-9.49-63.661-26.382s-26.369-39.803-26.369-63.692c1.268-23.020 11.309-44.678 28.058-60.513s38.929-24.642 61.972-24.607c23.044-0.034 45.224 8.772 61.972 24.607s26.791 37.492 28.058 60.513c0 23.889-9.485 46.8-26.369 63.692s-39.784 26.382-63.661 26.382v0zM882.008 566.617c-17.613 20.318-39.731 36.235-64.585 46.479s-51.756 14.531-78.563 12.52c-34.647 0.805-68.86-7.819-98.989-24.953s-55.039-42.132-72.071-72.327h-2.7v114.845h-145.85c2.7-58.998 0-577.826 0-577.826h173.759v358.946c3.986 19.738 14.981 37.364 30.953 49.619s35.839 18.305 55.926 17.036c56.272 0 84.176-40.983 84.176-120.248v-306.706h174.212v328.773c3.489 62.931-16.567 124.906-56.269 173.843v0z" />
<glyph unicode="&#xe909;" glyph-name="patreon1" d="M565.329 309.334c-63.996-53.334-117.329-202.67-117.329-202.67s-42.674-96-128.008-96c-85.334 0-121.38 40.104-149.329 96-64.004 128.004-64.616 391.888-42.666 490.67 21.331 96 85.333 277.334 383.999 288 298.669 10.667 394.669-138.666 405.333-256s-96-213.334-160-245.334c-63.999-32-121.508-15.92-191.999-74.666z" />
<glyph unicode="&#xe90a;" d="M204.8 960h614.4c113.108 0 204.8-91.692 204.8-204.8v-614.4c0-113.108-91.692-204.8-204.8-204.8h-614.4c-113.108 0-204.8 91.692-204.8 204.8v614.4c0 113.108 91.692 204.8 204.8 204.8z" />
<glyph unicode="&#xe90b;" d="M204.8 755.2h614.4v-614.4h-614.4v614.4z" />
<glyph unicode="&#xe90c;" d="M337.134 755.2c-41.764 0-75.617-33.855-75.617-75.617v-463.165c0-41.761 33.853-75.617 75.617-75.617h349.734c41.764 0 75.62 33.856 75.62 75.617v391.327l-147.456 147.456h-277.898z" />
<glyph unicode="&#xe90d;" d="M373.238 380.749h38.807c12.434 0 21.645 3.571 27.638 10.711 5.99 7.14 8.988 15.526 8.988 25.157 0 11.2-3.361 19.894-10.081 26.081-6.72 6.19-15.567 9.283-26.545 9.283v0h-55.524v-123.395h16.717v52.163zM373.238 394.862v42.755h33.262c6.441 0 11.51-0.868 15.204-2.604 6.72-3.249 10.081-9.408 10.081-18.481 0-8.064-2.337-13.691-7.014-16.883-4.675-3.192-10.765-4.787-18.271-4.787v0h-33.262zM558.129 356.641c4.928 10.583 7.391 22.428 7.391 35.533 0 16.968-4.17 30.884-12.516 41.746-9.352 12.042-22.51 18.061-39.48 18.061v0h-49.979v-123.395h49.812c21.169 0 36.091 9.352 44.772 28.055zM480.346 342.866v94.751h29.65c13.496 0 23.283-4.227 29.358-12.682 6.077-8.456 9.114-20.329 9.114-35.617 0-3.976-0.42-8.287-1.26-12.936-1.454-7.785-3.835-14.167-7.14-19.151-4.145-6.216-9.464-10.417-15.959-12.6-3.64-1.175-8.289-1.764-13.944-1.764v0h-29.819zM598.456 384.696h60.562v14.702h-60.562v37.463h68.879v15.119h-85.596v-123.395h16.717v56.11z" />
<glyph unicode="&#xe90e;" d="M373.238 380.749h38.807c12.434 0 21.645 3.571 27.638 10.711 5.99 7.14 8.988 15.526 8.988 25.157 0 11.2-3.361 19.894-10.081 26.081-6.72 6.19-15.567 9.283-26.545 9.283v0h-55.524v-123.395h16.717v52.163zM373.238 394.862v42.755h33.262c6.441 0 11.51-0.868 15.204-2.604 6.72-3.249 10.081-9.408 10.081-18.481 0-8.064-2.337-13.691-7.014-16.883-4.675-3.192-10.765-4.787-18.271-4.787v0h-33.262zM558.129 356.641c4.928 10.583 7.391 22.428 7.391 35.533 0 16.968-4.17 30.884-12.516 41.746-9.352 12.042-22.51 18.061-39.48 18.061v0h-49.979v-123.395h49.812c21.169 0 36.091 9.352 44.772 28.055zM480.346 342.866v94.751h29.65c13.496 0 23.283-4.227 29.358-12.682 6.077-8.456 9.114-20.329 9.114-35.617 0-3.976-0.42-8.287-1.26-12.936-1.454-7.785-3.835-14.167-7.14-19.151-4.145-6.216-9.464-10.417-15.959-12.6-3.64-1.175-8.289-1.764-13.944-1.764v0h-29.819zM598.456 384.696h60.562v14.702h-60.562v37.463h68.879v15.119h-85.596v-123.395h16.717v56.11z" />
<glyph unicode="&#xe90f;" d="M762.491 607.744h-71.839c-41.761 0-75.617 33.856-75.617 75.617v71.839l147.456-147.456z" />
<glyph unicode="&#xe910;" d="M762.491 607.744h-71.839c-41.761 0-75.617 33.856-75.617 75.617v71.839l147.456-147.456z" />
<glyph unicode="&#xe911;" glyph-name="qq1" d="M869.508 334.683c-18.264 57.566-39.263 105.947-71.556 185.127 5.018 207.974-83.086 376.19-286.001 376.19-205.197 0-291.362-171.576-285.884-376.19-32.412-79.292-53.296-127.337-71.556-185.127-38.803-122.635-26.249-173.367-16.663-174.486 20.543-2.465 80.002 92.282 80.002 92.282 0-54.877 28.759-126.44 91.072-178.071-30.129-9.070-97.805-33.485-81.714-60.255 13.011-21.614 223.914-13.773 284.743-7.051 60.829-6.722 271.731-14.563 284.743 7.051 16.091 26.653-51.697 51.185-81.714 60.255 62.309 51.741 91.069 123.304 91.069 178.071 0 0 59.465-94.747 80.004-92.282 9.699 1.229 22.257 51.961-16.545 174.486z" />
<glyph unicode="&#xe912;" glyph-name="save" d="M277.333 608c0 17.673 14.327 32 32 32s32-14.327 32-32v-128c0-17.673-14.327-32-32-32s-32 14.327-32 32v128zM832 42.667c47.13 0 85.333 38.204 85.333 85.333v487.32c0 22.632-8.99 44.337-24.994 60.34l-152.678 152.679c-16.004 16.003-37.709 24.994-60.339 24.994h-487.322c-47.128 0-85.333-38.205-85.333-85.333v-640c0-47.13 38.205-85.333 85.333-85.333h640zM170.667 768c0 11.782 9.551 21.333 21.333 21.333h487.322c5.658 0 11.085-2.248 15.083-6.249l152.683-152.679c3.998-4.001 6.246-9.427 6.246-15.085v-487.32c0-11.78-9.553-21.333-21.333-21.333h-85.333v128c0 47.13-38.204 85.333-85.333 85.333h-298.667c-47.128 0-85.333-38.204-85.333-85.333v-128h-85.333c-11.782 0-21.333 9.553-21.333 21.333v640zM682.667 106.667h-341.333v128c0 11.78 9.551 21.333 21.333 21.333h298.667c11.78 0 21.333-9.553 21.333-21.333v-128z" />
<glyph unicode="&#xe913;" glyph-name="tel1" d="M626.017 274.965l-41.46-28.469c0 0-41.519-18.049-91.318 23.257-49.799 41.359-138.24 135.815-163.139 189.955-24.9 54.249 24.899 77.507 24.899 77.507s65.009 50.354 67.711 59.405c2.76 9.051 38.759 45.199-38.7 142.068-77.401 96.87-95.37 77.507-136.889 47.776-41.46-29.675-99.657-87.819-111.99-155.013-12.45-67.139-20.73-149.802 84.389-297.081s264.088-259.618 352.588-277.721c88.616-18.044 150.807-29.674 239.187 37.464 88.561 67.196 103.826 73.618 63.664 121.395-40.053 47.828-128.322 105.149-141.531 107.508-13.155 2.469-32.123 6.582-61.897-13.987-29.832-20.57-45.512-34.063-45.512-34.063z" />
<glyph unicode="&#xe914;" glyph-name="radio_checked" d="M512 64c212.077 0 384 171.923 384 384s-171.923 384-384 384c-212.077 0-384-171.923-384-384s171.923-384 384-384zM64 448c0 247.423 200.577 448 448 448s448-200.577 448-448c0-247.424-200.576-448-448-448s-448 200.576-448 448zM512 661.333c-117.821 0-213.333-95.512-213.333-213.333s95.512-213.331 213.333-213.331c117.821 0 213.331 95.51 213.331 213.331s-95.51 213.333-213.331 213.333z" />
<glyph unicode="&#xe915;" glyph-name="weibo1" d="M969.333 503.719v-0.107c-4.513-13.991-16.896-23.818-31.386-24.993-14.482-1.175-28.233 6.622-34.845 19.653-4.308 8.544-5.149 18.477-2.209 27.663h-0.102c19.522 60.665 5.456 127.205-36.952 174.627-42.196 47.315-106.335 68.355-168.16 55.005-9.343-2.030-19.105-0.214-27.083 5.020s-13.646 13.458-15.64 22.856c-4.094 19.545 8.292 38.877 27.712 43.042 83.872 18.050 174.884-8.331 236.499-77.327 61.828-68.89 78.409-162.878 52.165-245.439zM720.347 639.468c-7.978-1.709-16.376-0.214-23.303 4.379-6.928 4.486-11.652 11.535-13.436 19.653-3.569 16.875 7.033 33.43 23.828 37.061 42.301 9.185 86.289-5.127 115.261-37.596 30.12-33.644 38.1-79.463 25.293-119.622-2.516-7.903-7.973-14.419-15.323-18.157s-15.85-4.486-23.618-1.922c-16.274 5.34-25.19 22.963-19.844 39.305h-0.102c6.51 20.293 1.887 42.615-12.281 58.529-14.38 15.808-35.796 22.856-56.474 18.371zM747.849 462.278c53.848-16.876 113.788-57.675 113.788-129.448 0-118.982-169.842-268.83-425.129-268.83-194.719 0-393.848 95.378-393.848 252.168 0 82.027 51.435 176.763 139.925 266.266 118.196 119.409 256.127 173.773 307.982 121.331 22.883-23.070 25.088-63.122 10.392-110.864-7.663-24.031 22.358-10.68 22.358-10.787 95.523 40.479 178.974 42.829 209.412-1.175 16.172-23.391 14.702-56.287-0.315-94.416-6.925-17.516 2.099-20.186 15.433-24.245zM436.928 120.181c155.355 15.484 273.237 111.611 263.159 214.785-10.077 102.96-144.228 173.986-299.584 158.499s-273.237-111.718-263.159-214.679c10.077-103.178 144.228-174.097 299.584-158.605zM452.464 414.002c76.523-19.972 115.572-92.921 84.291-163.732-31.701-72.525-122.919-111.078-200.283-85.873-74.739 24.357-106.334 98.903-73.584 166.084 32.121 65.792 115.677 102.96 189.576 83.522zM395.99 242.579c14.801 24.458 7.033 52.441-17.319 62.909-24.038 10.146-55.215-0.32-70.015-23.818-15.011-23.604-7.978-51.801 15.955-62.694 24.248-11.213 56.369-0.534 71.379 23.604z" />
<glyph unicode="&#xe916;" glyph-name="behance1" d="M884.904 853.331h-745.817c-17.936 0-32.427-14.491-32.427-32.427v-745.815c0-17.935 14.491-32.424 32.427-32.424h745.817c17.935 0 32.424 14.49 32.424 32.424v745.815c0 17.936-14.49 32.427-32.424 32.427zM599.647 611.245h140.244v-34.15h-140.244v34.15zM511.994 329.639c-6.587-12.464-15.909-23.205-27.36-31.413-11.957-8.309-25.232-14.389-39.318-17.936-14.693-3.952-29.893-5.877-45.194-5.775h-167.808v345.648h163.147c16.517 0 31.514-1.52 45.195-4.357 13.578-2.837 25.13-7.701 34.858-14.288 9.626-6.587 17.227-15.403 22.597-26.347 5.269-10.843 8.005-24.422 8.005-40.534 0-17.429-3.952-31.819-11.856-43.472-8.005-11.654-19.557-21.078-35.264-28.475 21.381-6.080 37.088-16.922 47.424-32.122 10.538-15.403 15.707-33.845 15.707-55.531 0-17.632-3.344-32.731-10.133-45.398zM794.514 383.143h-180.781c0-19.659 6.789-38.507 17.024-48.64 10.336-10.032 25.13-15.099 44.485-15.099 13.984 0 25.841 3.547 35.974 10.539 10.032 6.992 16.112 14.389 18.341 22.091h60.598c-9.728-30.096-24.525-51.579-44.588-64.549-19.861-12.97-44.181-19.456-72.453-19.456-19.76 0-37.493 3.242-53.402 9.424-15.301 5.979-29.083 15.099-40.432 26.854-11.147 12.058-19.862 26.245-25.435 41.749-6.181 17.126-9.222 35.163-9.019 53.301 0 18.747 3.141 36.176 9.222 52.389 11.653 31.514 35.871 56.746 66.779 69.819 16.517 6.891 34.251 10.336 52.187 10.133 21.279 0 39.722-4.053 55.733-12.363 15.811-8.208 28.78-19.354 39.115-33.237 10.233-13.883 17.43-29.691 21.987-47.525 4.359-17.531 5.881-35.974 4.667-55.43zM670.885 480.018c-10.944 0-20.165-1.925-27.259-5.674s-12.97-8.411-17.429-13.782c-4.255-5.168-7.397-11.248-9.221-17.632-1.622-5.371-2.736-10.843-3.141-16.416h111.974c-1.622 17.531-7.701 30.501-15.808 39.621-8.512 9.019-22.192 13.883-39.115 13.883zM419.071 490.253c8.816 6.384 13.072 16.922 13.072 31.413 0.304 6.891-1.115 13.68-4.155 19.861-2.736 4.965-6.789 9.12-11.755 12.058-5.168 3.141-10.843 5.168-16.821 6.080-6.486 1.216-13.072 1.824-19.557 1.723h-71.237v-80.763h77.115c13.275-0.101 24.523 3.141 33.339 9.627zM431.029 417.293c-9.931 7.6-23.205 11.349-39.722 11.349h-82.891v-95.253h81.269c7.6 0 14.592 0.709 21.381 2.128s12.869 3.85 18.038 7.296c5.168 3.344 9.323 7.904 12.464 13.781 3.041 5.878 4.56 13.376 4.56 22.395 0 17.936-5.067 30.603-15.099 38.304z" />
<glyph unicode="&#xe917;" glyph-name="booking" d="M192 873.412c0 12.475 10.113 22.588 22.588 22.588h254.746c11.782 0 21.333-9.551 21.333-21.334v-548.693c0-3.299-2.674-5.974-5.973-5.974-161.65 0-292.694 131.043-292.694 292.694v260.718zM193.596 0c-0.881 0-1.596 0.717-1.596 1.595v254.405c0 11.782 9.551 21.334 21.334 21.334h617.972c0.388 0 0.695-0.31 0.695-0.692 0-152.782-123.856-276.642-276.642-276.642h-361.762zM832 320.745c0-0.411-0.336-0.745-0.746-0.745h-276.588c-11.782 0-21.333 9.551-21.333 21.334v276.588c0 0.411 0.334 0.745 0.745 0.745 164.538 0 297.922-133.384 297.922-297.922z" />
<glyph unicode="&#xe918;" glyph-name="Brightcove" d="M257.003 143.243l100.228-121.907h372.17c103.792 0 187.928 86.989 187.928 194.289 0 42.034-13.188 82.938-37.588 116.569l-6.634 9.143c28.314 29.27 44.222 68.969 44.222 110.364v34.398c0 63.419-24.371 124.241-67.745 169.085l-35.387 36.585c18.483-25.46 29.433-57.1 29.433-91.384 0-84.157-65.989-152.381-147.393-152.381 81.404 0 147.393-68.223 147.393-152.381s-65.989-152.379-147.393-152.379h-439.234zM224.576 182.682v570.083h471.661c33.162 0 63.769-11.323 88.396-30.432l-147.354 152.336h-530.619v-548.571l117.915-143.416zM430.928 630.86h147.394c32.561 0 58.958-27.29 58.958-60.952s-26.397-60.953-58.958-60.953h-147.394v121.905zM430.928 387.051h147.394c32.561 0 58.958-27.29 58.958-60.953s-26.397-60.952-58.958-60.952h-147.394v121.905z" />
<glyph unicode="&#xe919;" glyph-name="cashapp1" d="M903.475 736.121c-8.602 23.656-22.279 45.139-40.082 62.939-17.796 17.799-39.278 31.481-62.939 40.084-44.244 14.187-84.442 14.187-166.183 14.187h-245.227c-81.067 0-121.938 0-165.511-13.512-23.69-8.638-45.196-22.372-62.997-40.231s-31.465-39.409-40.025-63.128c-13.849-43.911-13.849-84.444-13.849-165.511v-245.564c0-81.405 0-121.601 13.511-165.508 8.603-23.662 22.285-45.144 40.084-62.939 17.799-17.803 39.283-31.481 62.939-40.082 43.911-13.853 84.445-13.853 165.511-13.853h245.902c81.404 0 121.939 0 165.51 13.509 23.757 8.602 45.327 22.316 63.188 40.177s31.576 39.431 40.17 63.188c13.853 43.908 13.853 84.441 13.853 165.508v244.889c0 81.404 0 121.937-13.853 165.849zM695.070 579.73l-31.413-31.413c-3.062-2.847-7.071-4.458-11.251-4.521s-8.236 1.428-11.38 4.183c-30.422 25.693-68.945 39.809-108.765 39.858-32.764 0-65.529-10.808-65.529-40.871 0-30.4 35.129-40.534 75.662-55.733 70.934-23.644 129.707-53.369 129.707-122.951 0-75.663-58.773-127.68-154.702-133.422l-8.782-40.534c-0.777-3.723-2.813-7.066-5.766-9.465s-6.643-3.708-10.448-3.708h-60.462l-3.040 0.336c-4.328 0.973-8.1 3.606-10.502 7.336s-3.239 8.251-2.334 12.595l9.458 42.896c-36.405 9.126-69.885 27.377-97.28 53.031v0.338c-1.512 1.506-2.711 3.296-3.529 5.266s-1.24 4.084-1.24 6.218c0 2.134 0.421 4.247 1.24 6.217s2.017 3.761 3.529 5.267l33.777 32.764c3.068 2.874 7.113 4.473 11.316 4.473s8.248-1.599 11.315-4.473c30.738-29.049 71.947-45.262 114.507-44.586 43.911 0 73.298 18.578 73.298 47.964s-29.725 37.156-85.796 58.098c-59.448 21.28-115.858 51.342-115.858 121.6 0 81.742 67.893 121.6 148.285 125.316l8.444 41.547c0.786 3.692 2.835 6.995 5.794 9.338s6.645 3.58 10.419 3.498h60.124l3.378-0.338c8.782-2.027 14.525-10.471 12.498-19.253l-9.12-46.276c30.4-10.133 59.111-26.009 83.769-46.95l0.676-0.676c6.418-6.755 6.418-16.889 0-22.969z" />
<glyph unicode="&#xe91a;" glyph-name="Discord" d="M823.669 731.674c-0.249 0.483-0.666 0.861-1.163 1.066-58.097 26.654-119.399 45.66-182.381 56.543-0.572 0.106-1.163 0.029-1.69-0.219s-0.96-0.658-1.241-1.167c-8.348-15.151-15.925-30.714-22.705-46.629-67.891 10.306-136.949 10.306-204.84 0-6.824 15.955-14.523 31.522-23.063 46.629-0.293 0.499-0.729 0.898-1.252 1.145s-1.108 0.331-1.68 0.241c-62.988-10.86-124.297-29.868-182.382-56.545-0.497-0.211-0.916-0.571-1.2-1.030-116.159-173.468-147.979-342.671-132.369-509.779 0.044-0.41 0.17-0.805 0.37-1.163s0.471-0.68 0.796-0.929c67.638-50.081 143.293-88.313 223.734-113.050 0.567-0.176 1.172-0.168 1.733 0.022 0.562 0.183 1.055 0.534 1.41 1.002 17.277 23.508 32.587 48.406 45.771 74.43 0.181 0.358 0.285 0.746 0.304 1.148s-0.048 0.797-0.194 1.17c-0.147 0.373-0.371 0.709-0.658 0.987-0.287 0.285-0.629 0.497-1.005 0.636-24.141 9.238-47.512 20.37-69.895 33.302-0.407 0.234-0.748 0.571-0.994 0.973s-0.39 0.863-0.418 1.331c-0.028 0.475 0.061 0.944 0.257 1.368 0.197 0.432 0.497 0.805 0.873 1.090 4.71 3.518 9.337 7.145 13.88 10.876 0.399 0.328 0.881 0.538 1.392 0.608s1.032-0.007 1.503-0.217c146.635-66.921 305.388-66.921 450.285 0 0.475 0.224 1.002 0.31 1.521 0.247s1.009-0.272 1.412-0.603c4.549-3.751 9.187-7.393 13.919-10.911 0.373-0.285 0.68-0.651 0.878-1.083 0.197-0.424 0.293-0.892 0.271-1.368-0.029-0.468-0.168-0.929-0.41-1.331s-0.585-0.739-0.987-0.98c-22.332-13.041-45.725-24.166-69.928-33.265-0.376-0.146-0.718-0.366-1.002-0.651s-0.506-0.622-0.65-1.002c-0.143-0.373-0.207-0.775-0.184-1.178s0.129-0.79 0.312-1.148c13.406-25.878 28.692-50.739 45.736-74.386 0.346-0.483 0.835-0.848 1.4-1.039s1.174-0.205 1.744-0.029c80.582 24.656 156.373 62.888 224.096 113.050 0.329 0.241 0.607 0.549 0.805 0.9 0.197 0.358 0.322 0.753 0.358 1.156 18.688 193.197-31.283 361.013-132.469 509.781zM363.415 323.683c-44.148 0-80.524 40.513-80.524 90.269s35.671 90.273 80.524 90.273c45.204 0 81.229-40.869 80.523-90.269 0-49.759-35.673-90.272-80.523-90.272zM661.138 323.683c-44.146 0-80.522 40.513-80.522 90.269s35.67 90.273 80.522 90.273c45.207 0 81.232-40.869 80.523-90.269 0-49.759-35.316-90.272-80.523-90.272z" />
<glyph unicode="&#xe91b;" glyph-name="dribbble1" d="M512 896c-242.861 0-448-205.139-448-448 0-242.864 205.139-448 448-448 242.864 0 448 205.136 448 448 0 242.861-205.136 448-448 448zM512 806.4c64.198 0 124.902-18.188 177.676-49.19-41.934-51.268-92.035-95.269-148.288-130.234-32.033 58.55-66.622 115.666-103.668 171.181 24.386 5.444 49.293 8.208 74.279 8.243zM350.899 766.394c39.767-58.552 76.695-118.982 110.656-181.082-71.322-30.464-148.108-47.712-226.733-47.712-21.728 0-44.352 2.016-67.603 4.928 27.507 96.678 95.469 178.079 183.68 223.865zM153.6 448c0 2.016 0.268 4.032 0.314 6.048 27.686-3.584 54.701-6.048 80.908-6.048 93.363 0 184.262 21.011 268.442 58.016 7.616-15.322 15.232-31.136 22.758-47.264-113.389-42.918-211.859-125.485-286.048-240.889-53.536 62.809-86.374 143.359-86.374 230.137zM512 89.6c-75.622 0-146.496 25.088-205.049 66.889 48.115 78.89 129.562 174.986 254.777 220.413 34.003-82.924 62.855-172.168 79.341-261.987-41.022-16.567-84.828-25.161-129.069-25.315zM723.635 161.463c-17.293 81.802-43.68 161.904-73.696 236.989 20.383 2.777 41.395 4.748 63.661 4.748 50.085 0 100.304-8.378 149.764-23.968-17.92-87.942-69.347-165.179-139.728-217.769zM713.6 492.8c-34.048 0-67.29-3.449-99.725-9.587-9.931 21.636-20.206 43.113-30.822 64.422 67.717 41.224 127.86 93.76 177.809 155.322 61.74-60.346 102.188-142.061 108.332-231.616-50.659 14.16-103 21.378-155.593 21.459z" />
<glyph unicode="&#xe91c;" glyph-name="radio" d="M128 448c0 212.077 171.923 384 384 384s384-171.923 384-384c0-212.077-171.923-384-384-384s-384 171.923-384 384zM512 896c-247.423 0-448-200.577-448-448s200.577-448 448-448c247.424 0 448 200.576 448 448s-200.576 448-448 448z" />
<glyph unicode="&#xe91d;" glyph-name="github1" d="M512.050 896c-247.548 0.1-448.050-200.85-448.050-448.876 0-196.133 125.426-362.856 300.101-424.084 23.523-5.925 19.92 10.84 19.92 22.287v77.787c-135.837-15.96-141.342 74.174-150.451 89.234-18.418 31.516-61.962 39.546-48.949 54.603 30.931 15.959 62.463-4.016 99-58.121 26.427-39.241 77.978-32.622 104.104-26.097 5.706 23.589 17.918 44.668 34.735 61.031-140.741 25.295-199.4 111.416-199.4 213.799 0 49.685 16.316 95.356 48.348 132.193-20.421 60.727 1.902 112.721 4.905 120.45 58.159 5.219 118.619-41.756 123.324-45.47 33.033 8.934 70.771 13.651 113.014 13.651 42.443 0 80.28-4.919 113.614-13.953 11.312 8.632 67.368 48.983 121.424 44.065 2.904-7.729 24.722-58.519 5.508-118.442 32.432-36.938 48.947-83.010 48.947-132.796 0-102.583-59.063-188.805-200.203-213.698 23.524-23.286 38.139-55.608 38.139-91.339v-112.925c0.8-9.033 0-17.964 15.015-17.964 177.279 59.919 304.906 227.849 304.906 425.688 0 248.126-200.602 448.976-447.95 448.976z" />
<glyph unicode="&#xe91e;" glyph-name="LINE" d="M780.485 188.643c-84.769-63.978-172.148-110.014-255.508-135.278l-1.467-0.439c-5.076-1.521-10.137-2.97-15.181-4.345-7.096-1.924-14.158-3.694-21.184-5.31-19.19-4.418-32.731 16.201-22.883 32.293l0.201 0.329c0.906 1.47 1.807 2.94 2.51 4.528 2.114 4.762 4.688 10.050 7.425 15.675l0.402 0.827c1.529 3.138 3.104 6.385 4.673 9.691l0.33 0.695c17.164 36.315 33.186 80.201-19.395 86.901-289.743 19.12-396.409 130.243-396.409 301.833 0 197.325 200.488 357.289 447.803 357.289 247.318 0 458.584-132.965 447.803-357.289-6.21-129.197-81.43-233.664-179.12-307.399zM513.689 509.811l64.015-102.393c5.959-7.945 13.214-12.704 21.792-12.704 6.28 0 11.648 2.199 15.254 7.078 3.413 4.618 4.751 10.984 4.751 18.352v146.508c0 5.771-1.352 10.96-4.876 14.705-3.573 3.796-8.613 5.3-14.224 5.3-5.838 0-11.068-1.462-14.805-5.2s-5.2-8.966-5.2-14.805v-92.576l-61.909 97.626c-2.637 4.899-5.857 8.836-9.798 11.464-4.009 2.672-8.525 3.827-13.372 3.49-6.204-0.041-11.505-2.245-15.078-7.078-3.413-4.618-4.75-10.985-4.75-18.352v-147.413c0-5.537 1.387-10.54 4.974-14.126s8.589-4.974 14.126-4.974c5.612 0 10.651 1.504 14.225 5.3 3.523 3.744 4.876 8.934 4.876 14.705v95.092zM379.663 403.171c4.351 3.436 5.905 8.574 5.613 14.253 0.298 5.508-1.335 10.44-5.613 13.817-4.064 3.208-9.762 4.387-16.208 4.387h-65.006v131.93c0 5.611-1.504 10.651-5.3 14.224-3.744 3.523-8.934 4.876-14.705 4.876-5.537 0-10.54-1.387-14.127-4.974s-4.973-8.589-4.973-14.126v-147.413c0-6.205 1.649-11.694 5.741-15.57 4.045-3.832 9.691-5.339 16.072-5.339h82.185c6.419-0.306 12.185 0.669 16.321 3.935zM444.052 415.623v149.108c0.307 6.472-0.763 12.289-4.254 16.435-3.62 4.298-8.956 5.792-14.853 5.497-6.115 0.291-11.637-1.157-15.427-5.393-3.712-4.149-4.879-10.013-4.571-16.54v-149.108c0-6.076 1.43-11.494 5.108-15.389 3.725-3.944 8.989-5.52 14.897-5.52 5.688 0 10.759 1.625 14.313 5.623 3.463 3.896 4.787 9.271 4.787 15.285zM775.197 430.71c-4.001 3.333-9.589 4.32-15.748 4.013h-69.408v41.383h62.182c6.371-0.304 12.076 0.581 16.194 3.616 4.411 3.245 6.034 8.19 5.742 13.676 0.293 5.504-1.339 10.433-5.617 13.809-4.059 3.208-9.765 4.388-16.208 4.388h-62.291v34.149h68.626c6.444 0 12.142 1.179 16.208 4.387 4.279 3.377 5.91 8.309 5.61 13.817 0.293 5.679-1.258 10.817-5.61 14.253-4.14 3.266-9.904 4.241-16.325 3.935h-83.795c-7.304 0.606-13.824-0.394-18.358-4.28-4.719-4.046-6.086-10.137-5.46-16.852v-142.668c0-5.765 1.749-10.862 5.944-14.394 4.041-3.403 9.604-4.706 15.87-4.706h86.7c6.1-0.306 11.637 0.587 15.623 3.689 4.22 3.284 5.705 8.214 5.413 13.61 0.293 5.595-1.134 10.71-5.288 14.176z" />
<glyph unicode="&#xe91f;" glyph-name="meet1" d="M566.524 458.669l194.403-167.009v329.12l-194.403-162.111zM85.339 307.119v-141.779c0-32.417 26.107-58.668 58.329-58.668h140.946v200.447h-199.276zM284.615 810.669l-199.276-200.449h199.276v200.449zM284.615 610.221h-199.276v-303.102h199.276v303.102zM888.276 725.794l-127.349-105.013v-329.12l127.92-105.497c19.156-15.060 47.155-1.317 47.155 23.172v493.784c0 24.787-28.628 38.369-47.726 22.675zM566.524 458.669l-0.006-151.551h-281.903v-200.447h417.995c32.219 0 58.317 26.251 58.317 58.668v126.321l-194.403 167.009zM702.61 810.669h-417.995v-200.449h281.888l0.020-151.551 194.403 162.023v131.31c0 32.413-26.112 58.666-58.317 58.666z" />
<glyph unicode="&#xe920;" glyph-name="music" d="M917.124 646.491c0.263 24.896-2.458 49.732-8.104 73.98-10.708 44.253-35.869 78.033-73.633 102.794-19.259 12.382-40.828 20.735-63.4 24.559-17.459 3.006-35.116 4.7-52.826 5.067-1.351 0.102-2.803 0.338-4.188 0.44h-406.126c-5.134-0.338-10.234-0.575-15.368-0.878-25.231-1.453-50.327-4.155-74.072-13.546-45.125-17.904-77.685-49.050-96.769-93.91-6.486-15.133-9.863-31.247-12.261-47.563-1.867-13.214-2.994-26.522-3.378-39.861 0-1.081-0.236-2.094-0.338-3.141v-412.9c0.338-4.729 0.574-9.56 0.912-14.326 1.689-27.531 5.202-54.857 16.787-80.157 21.955-47.967 58.703-79.484 109.232-94.654 14.186-4.293 28.913-6.32 43.673-7.702 18.746-1.792 37.492-2.026 56.305-2.026h372.553c17.732 0 35.399 1.148 53.026 3.379 27.802 3.577 53.943 11.82 77.553 27.363 28.006 18.11 50.088 44.047 63.495 74.584 6.283 14.19 9.896 29.389 12.5 44.727 3.818 22.799 4.659 45.874 4.63 68.913-0.073 128.366 0 256.563-0.102 384.862h-0.102zM700.178 511.707v-192.955c0-14.087-1.959-27.936-8.241-40.739-9.795-19.931-25.67-32.497-46.882-38.51-11.822-3.378-23.846-5.304-36.141-5.844-32.088-1.52-59.886 20.268-65.627 51.887-2.412 13.652-0.29 27.718 6.040 40.051s16.522 22.256 29.019 28.254c10.91 5.405 22.63 8.445 34.384 10.945 12.767 2.77 25.602 5.168 38.302 8.107 9.255 2.128 15.436 7.769 17.226 17.431 0.459 2.143 0.685 4.329 0.676 6.52 0 61.311 0 122.623-0.067 183.867-0.023 2.112-0.317 4.213-0.878 6.25-1.351 5.067-5.067 8.208-10.268 7.905-5.405-0.338-10.741-1.183-16.044-2.229-25.67-5.067-51.34-10.236-77.010-15.405l-124.973-25.267c-0.541-0.102-1.081-0.338-1.622-0.44-9.356-2.601-12.733-6.857-13.172-16.552-0.068-1.419 0-2.905 0-4.391-0.068-87.897 0-175.794-0.102-263.658 0-14.188-1.587-28.24-7.262-41.448-9.39-21.621-26.008-35.131-48.435-41.655-11.822-3.372-23.981-5.405-36.31-5.808-32.426-1.214-59.278 20.268-64.851 52.157-4.729 27.43 7.769 56.921 38.978 70.094 12.058 5.067 24.656 7.837 37.424 10.473 9.694 2.027 19.422 3.918 29.047 5.979 12.937 2.804 19.692 10.911 20.266 24.12v5.067c0 99.99 0 200.049 0.067 300.039 0 4.155 0.439 8.445 1.418 12.499 2.365 9.627 9.221 15.133 18.442 17.498 8.613 2.229 17.395 3.784 26.143 5.574 24.758 5.067 49.516 9.999 74.308 14.999l76.672 15.538c22.63 4.527 45.261 9.121 67.89 13.614 7.431 1.453 14.963 2.973 22.428 3.58 10.47 0.845 17.665-5.742 18.712-16.282 0.27-2.466 0.405-4.999 0.405-7.533 0.067-64.521 0.067-129.11 0-193.63l0.034-0.101z" />
<glyph unicode="&#xe921;" glyph-name="nintendo1" d="M280.13 850.748c-80.69-14.477-145.641-74.196-166.084-152.736-7.418-28.412-7.961-45.061-7.056-265.117 0.362-201.959 0.543-206.664 3.98-222.411 18.635-84.144 78.338-144.048 163.37-163.774 11.037-2.531 25.148-3.072 115.969-3.438 93.897-0.724 103.667-0.541 106.2 1.989 2.533 2.538 2.714 34.926 2.714 402.112 0 272.355-0.543 400.481-1.628 402.833-1.628 3.076-4.523 3.257-102.943 3.076-79.966-0.181-104.029-0.724-114.522-2.534zM431.921 447.915v-340.037l-68.388 0.907c-62.96 0.724-69.654 1.083-82.318 4.162-54.095 13.934-94.079 55.552-105.476 109.846-3.618 17.009-3.618 434.501-0.181 451.15 10.132 47.232 42.878 86.321 86.841 103.875 22.072 8.868 32.385 9.953 104.21 10.135l64.95 0.181v-340.218h0.362zM294.603 685.344c-10.494-1.991-26.595-10.135-35.28-17.554-17.549-15.201-26.414-36.917-24.967-62.433 0.723-13.211 1.447-16.83 6.875-27.507 7.961-16.287 19.72-28.231 36.003-36.194 11.217-5.61 14.111-6.153 28.766-6.695 13.207-0.543 17.91 0 26.776 3.076 36.364 12.306 58.437 47.595 52.105 83.969-7.056 42.89-48.125 71.844-90.279 63.339zM580.817 852.377c-0.723-0.543-1.085-182.415-1.085-404.462 0-366.098 0.181-403.196 2.714-404.278 4.523-1.631 134.785-1.090 150.885 0.724 68.206 7.775 128.453 49.218 161.017 110.746 4.162 7.965 9.772 21.175 12.668 29.323 10.496 31.488 10.313 23.164 10.313 264.39 0 192.549-0.366 221.323-2.714 233.448-16.647 87.407-83.405 153.46-170.971 168.48-11.761 1.991-29.85 2.534-88.287 2.534-40.526 0.181-73.996-0.362-74.539-0.905zM760.108 486.642c26.236-6.877 47.579-26.783 56.444-52.299 5.61-15.745 5.427-38.908-0.176-53.386-10.313-26.602-30.398-45.242-56.269-52.119-41.973-10.858-86.66 14.477-98.782 56.1-3.618 12.668-3.437 34.203 0.724 47.413 12.483 41.079 56.084 65.329 98.058 54.29z" />
<glyph unicode="&#xe922;" glyph-name="paypal1" d="M891.809 572.981c6.576-30.017 5.054-64.514-2.033-101.987-32.885-164.999-143.638-221.992-285.712-221.992h-22.267c-17.185 0-31.361-12.513-34.371-29.507l-2.038-9.501-27.801-172.997-1.004-7.49c-3.528-16.991-17.703-29.506-34.888-29.506h-126.931c-14.175 0-23.27 11.491-21.23 25.505 9.094 56.005 17.703 112.004 26.797 168.009 9.094 55.999 18.188 111.489 27.315 167.491 1.521 12.001 9.612 18.497 21.748 18.497 20.228 0 40.455 0.512 66.249 0 36.41-0.512 78.386 1.504 119.326 10.496 54.598 12.001 104.18 33.985 145.12 72.003 36.93 33.985 61.689 76.003 78.387 123.012 7.6 21.689 13.517 43.92 17.701 66.499 1.002 5.985 2.523 4.992 6.056 2.496 27.794-20.513 43.491-48.002 49.547-80.995l0.029-0.031zM804.849 713.977c0-40.994-9.611-80.003-23.267-117.988-26.28-75.491-75.864-129.508-152.729-157.509-40.972-14.497-83.952-20.513-127.449-20.993-30.357-0.512-60.682 0-91.007 0-32.882 0-53.595-16.001-59.679-48.001-7.088-38.017-34.888-215.015-42.979-265.001-0.518-3.489-2.038-4.996-6.052-4.996h-149.166c-3.504-0.022-6.972 0.702-10.168 2.121s-6.044 3.511-8.349 6.115c-2.305 2.611-4.012 5.683-5.005 9.011-0.994 3.321-1.25 6.817-0.751 10.247l117.319 735.511c1.607 9.338 6.492 17.817 13.797 23.946s16.561 9.513 26.141 9.56h302.409c21.749 0 71.816-9.504 105.701-22.497 71.818-27.489 111.235-83.491 111.235-159.494v-0.032z" />
<glyph unicode="&#xe923;" glyph-name="phone1" d="M201.301 849.407c-9.301-18.254-9.301-42.149-9.301-89.941v-622.931c0-47.792 0-71.687 9.301-89.944 8.181-16.055 21.236-29.111 37.292-37.288 18.254-9.304 42.149-9.304 89.941-9.304h366.933c47.789 0 71.685 0 89.942 9.304 16.055 8.177 29.111 21.233 37.288 37.288 9.304 18.256 9.304 42.152 9.304 89.944v622.931c0 47.792 0 71.687-9.304 89.941-8.177 16.056-21.233 29.111-37.288 37.292-18.256 9.301-42.152 9.301-89.942 9.301h-366.933c-47.792 0-71.687 0-89.941-9.301-16.056-8.181-29.111-21.236-37.292-37.292zM512 192c35.346 0 64-28.657 64-64s-28.654-64-64-64c-35.346 0-64 28.657-64 64s28.654 64 64 64zM256 746.666c0 11.783 9.551 21.334 21.334 21.334h469.331c11.783 0 21.336-9.551 21.336-21.334v-469.333c0-11.783-9.552-21.334-21.336-21.334h-469.331c-11.783 0-21.334 9.551-21.334 21.334v469.333zM448 853.334c-11.782 0-21.334-9.552-21.334-21.334s9.552-21.334 21.334-21.334h128c11.782 0 21.334 9.552 21.334 21.334s-9.552 21.334-21.334 21.334h-128z" />
<glyph unicode="&#xe924;" glyph-name="rouned-address" horiz-adv-x="975" d="M487.609 389.466c-41.123 0-74.497 35.757-74.497 79.818s33.375 79.819 74.497 79.819c41.121 0 74.499-35.759 74.499-79.819s-33.378-79.818-74.499-79.818zM487.618 1.019c246.863 0 446.982 200.124 446.982 446.986s-200.119 446.983-446.982 446.983c-246.863 0-446.984-200.122-446.984-446.983s200.122-446.986 446.984-446.986zM487.614 708.74c123.397 0 223.491-98.167 223.491-219.193 0-113.437-106.413-231.992-172.383-294.588-29.018-27.531-73.2-27.531-102.215 0-65.97 62.596-172.386 181.15-172.386 294.588 0 121.026 100.093 219.193 223.492 219.193z" />
<glyph unicode="&#xe925;" glyph-name="psn1" d="M394.087 815.803v-686.318l153.119-49.32v575.596c0 26.987 11.89 45.017 31.054 38.759 24.875-7.079 29.725-31.836 29.725-58.862v-229.816c95.47-46.66 170.606 0.078 170.606 123.317 0 126.603-44.039 182.845-173.578 227.901-51.118 17.522-145.806 46.386-210.847 58.745h-0.078zM576.188 180.56l246.245 88.978c27.963 10.091 32.307 24.444 9.618 31.993-22.916 7.51-64.022 5.437-92.182-4.811l-164.463-58.628v93.28l9.386 3.325c0 0 46.972 16.426 113.931 24.053 66.329 7.040 148.037-1.134 212.644-25.852 72.28-23.506 79.828-57.571 61.645-81.039-18.191-23.464-63.444-40.521-63.444-40.521l-334.162-121.512v89.834l0.782 0.9zM113.387 189.872c-74.311 21.314-86.592 65.235-52.879 90.775 31.328 22.88 84.441 41.106 84.441 41.106l219.648 78.731v-90.464l-157.422-57.571c-27.573-10.599-32.267-24.717-9.348-32.309 22.919-7.621 64.025-5.866 91.638 4.696l75.797 27.614v-81.118c-4.732-1.134-10.013-1.719-15.293-2.853-75.797-12.946-156.249-7.665-236.114 18.732l-0.469 2.662z" />
<glyph unicode="&#xe926;" glyph-name="signal1" d="M512.456 799.007c-194.88 0-352.875-145.6-352.875-325.136 0-112.597 45.509-197.903 117.786-252.899h-0.187l8.736-113.562v-0.154c0-0.636 0-1.156 0.149-1.719v-0.219c0.298-1.785 1.017-3.474 2.096-4.93s2.487-2.626 4.109-3.43c1.622-0.805 3.412-1.207 5.222-1.185 1.81 0.029 3.588 0.483 5.187 1.331l0.41 0.3 108.118 62.493c31.882-7.314 65.968-11.162 101.173-11.162 194.88 0 352.876 145.562 352.876 325.172 0 179.574-158.034 325.136-352.951 325.136l0.149-0.037zM451.901 869.119c19.874 2.524 39.886 3.82 59.92 3.882 14.187 0 28-0.747 41.776-1.941l2.128 22.922c-35.621 3.232-71.489 2.544-106.96-2.053l3.098-22.848 0.037 0.038zM593.656 865.61c34.161-6.16 66.64-16.278 97.44-29.681l9.408 21.168c-4.928 2.090-9.819 4.182-14.822 6.16-28.448 11.2-57.904 19.563-87.92 25.051l-4.107-22.698zM935.965 471.519c-0.549-33.571-5.632-66.913-15.119-99.12l22.023-6.533c10.145 34.335 15.557 69.893 16.091 105.691l-22.996-0.037zM315.821 828.276c30.809 14.831 63.195 26.127 96.544 33.675l-5.040 22.549c-35.134-7.757-69.222-19.662-101.546-35.467l10.043-20.757zM825.424 776.047c-26.39 24.218-55.581 45.188-86.952 62.458l-11.611-20.197c30.277-16.614 58.276-36.624 83.027-59.584l15.536 17.249v0.075zM629.646 72.763c35.28 8.96 68.879 22.060 100.277 38.451l-11.761 19.902c-29.343-15.419-60.891-27.553-94.117-36.103l5.601-22.25zM201.283 746.479c23.521 23.818 50.289 44.8 79.52 62.533l-12.208 19.749c-26.059-15.754-50.401-34.123-72.613-54.992-3.809-3.509-7.467-7.131-11.2-10.789l16.389-16.464 0.112-0.037zM928.534 325.359l-21.204 8.811c-13.027-31.078-30.018-60.341-50.549-87.062l18.483-13.776c21.621 28.251 39.49 59.184 53.16 92.027h0.11zM837.778 730.5c22.587-25.152 41.83-53.108 57.271-83.179l20.721 10.266c-16.325 31.96-36.74 61.654-60.745 88.331l-17.357-15.419h0.11zM933.127 618.388l-21.204-9.109c11.688-30.912 19.449-63.579 22.55-97.44l22.96 2.277c-3.269 35.71-11.447 70.798-24.305 104.272zM302.419 42.971l-36.176-15.872-12.395 38.268-21.84-7.095 16.352-50.286c1.071-3.072 3.312-5.595 6.235-7.014 1.462-0.658 3.046-0.995 4.648-0.995s3.185 0.336 4.647 0.995l47.899 21.014-9.371 20.985zM445.145 87.508c-2.913 0.6-5.862 1.009-8.848 1.529l-17.36 2.955c-2.178 0.322-4.405 0.029-6.421-0.863l-72.837-31.846 10.117-20.677 68.88 29.974c4.667-0.783 9.334-1.529 13.851-2.202 2.538-0.636 5.189-0.973 7.802-1.419l4.816 22.55zM584.323 86.762c-23.632-3.884-47.824-5.822-72.501-5.822-10.192 0-19.6 0.556-28.821 1.419l-0.709-22.96c9.37-0.9 19.077-1.499 29.531-1.499 26.059 0 51.632 2.165 76.458 6.203l-3.882 22.623-0.075 0.037zM120.643 630.335c13.814 30.8 31.808 59.659 53.2 85.941l-17.547 15.195c-22.666-27.598-41.596-58.063-56.299-90.608l-0.373-0.784 21.018-9.744zM830.537 216.159c-23.142-24.459-49.079-46.117-77.283-64.512l12.661-19.229c29.872 19.427 57.322 42.35 81.759 68.286l-17.137 15.455zM100.222 352.761c-7.019 29.717-10.939 62.571-12.059 99.717h-22.997c1.12-39.984 5.413-74.853 12.88-106.138l22.176 6.421zM84.094 600.132c-11.088-33.973-17.472-69.179-19.040-105.019l22.96-1.12c1.515 33.799 7.632 67.234 18.181 99.381l-22.101 6.757zM240.857 105.092l-22.027 67.76c-0.725 2.18-2.091 4.096-3.92 5.486-8.466 6.641-16.685 13.59-24.64 20.838l-15.754-16.655c7.243-6.868 15.232-13.517 23.483-20.195l20.944-64.102 21.915 6.868zM162.27 227.994c-21.944 25.517-39.082 54.799-50.587 86.426l-21.391-8.549c12.455-34.144 31.027-65.733 54.805-93.223l17.173 15.345z" />
<glyph unicode="&#xe927;" glyph-name="skype1" d="M908.588 376.722c4.374 24.063 6.722 48.661 6.722 73.259 0 54.543-10.672 107.482-31.685 157.213-20.268 48.127-49.393 91.333-86.411 128.444s-80.116 66.201-128.121 86.521c-49.713 21.069-102.413 31.763-156.82 31.763-25.603 0-51.313-2.46-76.276-7.272-34.458 18.288-73.076 28.020-112.12 28.020-63.688 0-123.642-24.918-168.662-70.050s-69.875-105.236-69.875-169.084c0-40.64 10.454-80.639 29.977-115.931-3.947-22.886-6.080-46.308-6.080-69.622 0-54.543 10.668-107.482 31.683-157.213 20.269-48.127 49.287-91.333 86.304-128.446 37.018-37.105 80.117-66.202 128.123-86.521 49.713-21.065 102.412-31.759 156.819-31.759 23.683 0 47.366 2.136 70.622 6.305 35.738-20.209 76.063-31.013 117.348-31.013 63.688 0 123.643 24.81 168.662 70.049 45.122 45.136 69.873 105.238 69.873 169.086 0.11 40.64-10.35 80.745-30.084 116.252zM513.872 202.503c-143.165 0-207.172 70.587-207.172 123.419 0 27.165 19.949 46.095 47.472 46.095 61.234 0 45.446-88.231 159.7-88.231 58.567 0 90.891 31.87 90.891 64.489 0 19.571-9.601 41.389-48.219 50.907l-127.376 31.871c-102.519 25.774-121.188 81.387-121.188 133.577 0 108.445 101.879 149.192 197.571 149.192 88.117 0 192.023-48.875 192.023-113.899 0-27.914-24.109-44.063-51.633-44.063-52.273 0-42.672 72.51-147.965 72.51-52.273 0-81.183-23.742-81.183-57.645s41.285-44.703 77.13-52.939l94.305-20.962c103.267-23.101 129.403-83.525 129.403-140.422 0-88.018-67.528-153.899-203.758-153.899z" />
<glyph unicode="&#xe928;" glyph-name="soundcloud1" d="M841.326 853.331h-658.665c-41.8 0-76-34.2-76-76.001v-658.663c0-41.801 34.2-76.003 76-76.003h658.665c41.801 0 76.003 34.202 76.003 76.003v658.663c0 41.8-34.202 76.001-76.003 76.001zM245.994 295.997h-25.333l-12.667 76.001 12.667 76h25.333l12.667-76-12.667-76.001zM347.328 295.997h-25.334l-12.666 101.334 12.666 101.334h25.334l12.666-101.334-12.666-101.334zM448.66 295.997h-25.333l-12.667 152 12.667 152h25.333l12.667-152-12.667-152zM759.954 295.997l-238.587 0.152c-2.511 0.29-4.834 1.474-6.545 3.334s-2.698 4.273-2.778 6.799v273.296c0 5.067 1.723 7.6 8.208 10.133 21.975 8.541 45.635 11.852 69.11 9.673s46.122-9.789 66.149-22.228c20.028-12.439 36.887-29.366 49.246-49.444s19.877-42.754 21.962-66.238c13.091 5.463 27.332 7.61 41.456 6.248s27.692-6.189 39.504-14.053c11.805-7.865 21.489-18.523 28.189-31.029 6.707-12.506 10.211-26.473 10.218-40.662 0-47.525-38.605-85.982-86.133-85.982z" />
<glyph unicode="&#xe929;" glyph-name="spotify1" d="M501.328 896c-252.267 0-458.667-206.4-458.667-458.666s206.4-458.669 458.667-458.669c252.263 0 458.665 206.402 458.665 458.669s-204.076 458.666-458.665 458.666zM712.4 233.255c-9.144-13.79-25.255-18.259-39.072-9.146-107.844 66.479-243.122 80.268-403.656 43.546-16.139-4.672-29.727 6.823-34.4 20.612-4.644 16.139 6.794 29.756 20.612 34.4 174.321 39.072 325.739 22.933 444.878-50.511 16.14-6.823 18.461-25.083 11.638-38.872v-0.029zM767.386 359.389c-11.469-16.14-32.080-22.933-48.192-11.467-123.811 75.594-311.922 98.556-456.345 52.661-18.289-4.673-39.044 4.672-43.544 22.933-4.645 18.261 4.644 39.072 22.933 43.544 167.356 50.511 373.727 25.255 515.997-62.005 13.619-6.823 20.612-29.756 9.15-45.695v0.029zM771.884 487.844c-146.745 87.060-392.189 96.406-532.14 52.689-22.933-6.822-45.866 6.823-52.689 27.606-6.794 22.933 6.794 45.866 27.606 52.689 162.855 48.189 431.089 39.073 600.912-61.977 20.612-11.467 27.575-39.073 16.135-59.655-11.637-15.939-39.073-22.761-59.824-11.295v-0.058z" />
<glyph unicode="&#xe92a;" glyph-name="teams1" d="M414.517 681.898h83.927c21.657 0 39.159-17.223 39.159-38.49v-55.155c25.68 0.476 50.576 8.763 71.257 23.72s36.128 35.845 44.21 59.786c8.082 23.94 8.403 49.754 0.917 73.882s-22.41 45.379-42.714 60.826c-20.304 15.447-44.987 24.328-70.647 25.419s-51.033-5.663-72.619-19.33c-21.587-13.667-38.324-33.573-47.905-56.975s-11.532-49.146-5.586-73.683zM806.744 588.183h0.073c11.205-0.010 22.309 2.149 32.666 6.352s19.771 10.37 27.707 18.146c7.929 7.777 14.226 17.011 18.52 27.176 4.301 10.165 6.517 21.061 6.524 32.068 0.015 11.007-2.187 21.907-6.466 32.079s-10.562 19.417-18.476 27.206c-7.921 7.79-17.328 13.971-27.677 18.191s-21.445 6.397-32.658 6.407c-22.63 0.028-44.354-8.776-60.379-24.474s-25.043-37.006-25.071-59.234 8.937-43.558 24.925-59.295c15.982-15.738 37.683-24.595 60.314-24.622zM519.745 273.257v355.508c0 19.629-16.189 35.561-36.176 35.596h-362.088c-9.589-0.028-18.777-3.786-25.55-10.451s-10.582-15.694-10.591-25.111v-355.577c0.010-9.419 3.824-18.45 10.606-25.111s15.979-10.406 25.57-10.416h362.124c9.592 0.019 18.785 3.773 25.56 10.44s10.582 15.702 10.582 25.121h-0.036zM395.772 534.388h-70.863v-198.48h-45.087v198.516h-70.508v38.525h186.458v-38.56zM902.992 542.441h-365.354v-283.793c0-21.267-17.574-38.489-39.195-38.489h-149.748c21.23-52.626 62.877-94.815 115.781-117.285 52.903-22.477 112.73-23.391 166.32-2.545 50.733 19.741 92.049 57.505 115.736 105.779 18.505-9.304 39-14.146 59.787-14.124h0.958c17.254 0 34.341 3.343 50.286 9.823 15.938 6.488 30.42 15.989 42.628 27.973 12.2 11.982 21.877 26.206 28.482 41.861 6.597 15.655 9.999 32.434 9.999 49.378v186.383c0 19.35-15.974 35.038-35.716 35.038h0.037z" />
<glyph unicode="&#xe92b;" glyph-name="Telegram" d="M512 896c-247.484 0-448-200.516-448-448 0-247.486 200.516-448 448-448 247.486 0 448 200.514 448 448 0 247.484-200.514 448-448 448zM732.028 589.084l-73.525-346.478c-5.419-24.567-20.051-30.528-40.464-18.964l-112 82.552-54.013-52.026c-5.961-5.961-11.019-11.020-22.581-11.020l7.948 113.987 207.561 187.51c9.032 7.948-1.987 12.464-13.91 4.516l-256.516-161.497-110.555 34.503c-24.026 7.587-24.567 24.026 5.059 35.588l431.922 166.554c20.051 7.226 37.576-4.877 31.073-35.226z" />
<glyph unicode="&#xe92c;" glyph-name="Threads" d="M406.664 559.104c-15.223 10.080-65.741 44.912-65.741 44.912 42.624 60.536 98.836 84.112 176.585 84.112 54.972 0 101.655-18.312 134.976-53.088s52.321-84.504 56.663-148.064c18.493-7.728 35.52-16.745 51.026-27.105 62.523-41.72 96.914-104.16 96.914-175.672 0-152.097-125.499-284.2-352.716-284.2-195.078 0-397.711 112.728-397.711 448.336 0 333.76 196.318 447.664 397.147 447.664 92.803 0 310.433-13.608 392.185-282.016l-76.676-19.768c-63.371 191.24-196.037 221.704-317.651 221.704-200.998 0-314.718-121.577-314.718-380.24 0-232.006 127.083-355.208 317.425-355.208 156.57 0 273.276 80.808 273.276 199.137 0 80.527-68.106 119.112-71.601 119.112-13.306-69.104-48.938-185.362-205.452-185.362-91.224 0-169.876 62.61-169.876 144.595 0 117.040 111.86 159.432 200.153 159.432 33.039 0 72.957-2.24 93.762-6.384 0 35.672-30.446 96.768-107.124 96.768-70.476 0-88.292-22.68-110.901-48.608l0.056-0.056zM541.696 437.36c-115.017 0-129.902-48.72-129.902-79.296 0-49.168 58.805-65.408 90.21-65.408 57.509 0 116.539 15.792 125.842 135.688-28.231 6.532-57.169 9.56-86.151 9.016z" />
<glyph unicode="&#xe92d;" glyph-name="tiktok1" d="M874.672 524.731c-71.3-0.176-140.851 22.713-198.827 65.433v-297.942c-0.020-55.182-16.405-109.043-46.965-154.377-30.56-45.341-73.838-79.996-124.047-99.328-50.209-19.339-104.956-22.433-156.92-8.872-51.964 13.553-98.669 43.118-133.869 84.743-35.201 41.618-57.218 93.308-63.11 148.153-5.891 54.848 4.625 110.24 30.142 158.77s64.819 87.883 112.651 112.799c47.832 24.916 101.913 34.207 155.012 26.63v-149.854c-24.298 7.867-50.39 7.63-74.55-0.677s-45.152-24.261-59.979-45.583c-14.826-21.321-22.728-46.919-22.578-73.139s8.345-51.721 23.414-72.863c15.070-21.138 36.242-36.835 60.496-44.851 24.253-8.009 50.346-7.936 74.553 0.227s45.289 23.991 60.237 45.224c14.947 21.228 22.996 46.778 22.995 72.998v582.448h142.517c-0.099-12.388 0.909-24.76 3.012-36.959 4.953-27.232 15.25-53.137 30.262-76.131s34.422-42.595 57.046-57.602c32.19-21.907 69.925-33.584 108.507-33.575v-145.67z" />
<glyph unicode="&#xe92e;" glyph-name="Venmo" d="M852.473 853.331h-676.5c-37.002 0-69.312-26.607-69.312-63.116v-678.064c0-36.769 32.311-69.486 69.283-69.486h676.324c37.237 0 65.061 32.922 65.061 69.486v678.064c0.227 36.48-27.853 63.116-64.856 63.116zM551.831 210.937h-187.611l-75.247 449.802 164.217 15.634 39.809-320.069c37.146 60.511 83.007 155.619 83.007 220.531 0 35.495-6.080 59.7-15.577 79.619l149.538 30.255c17.284-28.547 25.073-57.904 25.073-95.137 0-118.532-101.188-272.5-183.239-380.606l0.029-0.029z" />
<glyph unicode="&#xe92f;" glyph-name="vimeo1" d="M64 617.23l36.4-48.173c0 0 75.039 59.737 100.071 29.854 25.004-29.854 120.511-390.453 152.403-456.97 27.832-58.324 104.58-135.453 188.747-80.377 84.111 55.069 363.859 296.223 413.918 580.969 50.037 284.689-336.639 225.037-377.574-22.984 102.367 62.055 156.997-25.218 104.635-124.025-52.276-98.694-100.071-163.095-125.075-163.095-24.976 0-44.184 66.070-72.8 181.5-29.567 119.36-29.4 334.361-152.346 309.992-115.975-22.928-268.378-206.69-268.378-206.69z" />
<glyph unicode="&#xe930;" glyph-name="webex1" d="M404.969 370.142c-0.425-1.058-0.85-2.327-1.488-3.386-2.126-5.503-4.464-10.158-6.802-15.026-1.488-3.174-2.976-6.349-4.464-9.311-2.551-4.868-5.315-9.1-7.866-13.121-1.275-1.905-2.55-3.386-3.613-4.868-2.126-2.751-4.464-5.502-6.59-7.83-1.063-1.058-1.913-2.116-2.976-2.963-3.401-3.174-6.802-5.714-10.203-7.83-28.91-16.93-59.521 7.619-79.078 69.837-30.398 72.376-30.823 156.18-55.694 229.827-38.051 77.032-160.706 50.367-162.194-35.977 10.416-161.471 75.677-443.147 269.332-455.208h3.401c13.392-0.424 25.721 1.273 37.838 3.387 2.976 0.636 5.952 1.061 8.716 1.69 4.252 1.061 8.291 1.909 12.33 3.174 3.826 1.061 7.44 2.545 11.266 3.811 5.315 1.909 10.629 4.235 15.518 6.561 3.614 1.697 7.44 3.599 10.841 5.5 1.488 0.848 2.976 1.273 4.252 2.121v0.424c18.493 11.001 35.5 24.547 50.805 40.419-39.752 55.444-64.835 124.435-83.542 188.347l0.212 0.423zM621.369 469.818c10.204 34.284 21.258 69.202 36.563 99.465 1.488 2.751 2.975 5.503 4.676 8.042v0.635c4.89 6.984 10.629 11.851 17.219 13.12 30.611 5.714 63.348-60.525 90.557-86.979 25.936-25.395 71.212-30.262 101.398-12.063 101.398 64.546-1.492 184.115-67.811 234.059-40.177 30.898-91.833 45.076-141.363 40.844v1.058c-33.162-3.174-65.472-14.602-92.682-35.553-13.392-10.158-25.084-22.009-35.5-34.918 42.515-59.255 62.922-135.864 82.267-210.569 1.488-5.925 2.975-11.428 4.676-17.353v0.211zM925.776 609.491c6.59-17.142 10.416-34.495 9.779-51.637-0.848-23.702-10.84-57.351-52.297-83.804-15.938-9.523-34.436-14.179-53.138-14.179-18.71 0-38.48 5.29-55.062 14.602-8.287-39.363-16.581-78.725-33.375-112.797-46.763-118.299-106.709-61.372-130.943 29.628-35.075 106.236-49.955 244.217-129.245 319.98-67.174 65.393-177.074 63.276-249.35 6.56-14.667-10.582-30.823-24.549-45.916-40.632 29.335-8.888 53.994-28.993 68.236-57.985l1.701-3.809c10.416-30.686 16.794-62.853 22.32-94.174 20.408 21.163 39.114 47.828 58.458 56.928 101.823 45.076 58.671-461.983 343.307-471.719h3.402c191.742 11.644 262.954 275.964 275.922 435.742 0.424 29.417-13.817 52.907-34.224 67.297h0.424z" />
<glyph unicode="&#xe931;" glyph-name="wechat1" d="M64 549.865c0-78.15 32.541-149.584 86.301-204.298l-27.68-77.499c-15.804-44.252 27.63-86.631 71.477-69.742l132.558 51.054c17.419-3.593 48.176-8.562 85.304-8.64-14.474 33.044-22.453 69.223-22.453 107.146 0 156.108 135.218 282.658 302.018 282.658 21.726 0 42.918-2.147 63.34-6.227-4.952 21.927-13.144 43.159-24.146 63.793-54.623 102.482-172.798 173.505-313.938 173.505-194.835 0-352.78-139.576-352.78-311.751zM258.074 569.202c-27.426 0-49.657 22.233-49.657 49.657s22.232 49.657 49.657 49.657c27.425 0 49.657-22.233 49.657-49.657s-22.233-49.657-49.657-49.657zM507.941 618.86c0-27.425-22.233-49.657-49.657-49.657s-49.657 22.233-49.657 49.657c0 27.425 22.233 49.657 49.657 49.657s49.657-22.233 49.657-49.657zM960 347.886c0-63.452-25.132-121.407-66.582-165.636l6.254-93.85c2.787-41.779-43.527-68.63-78.402-45.458l-85.811 57.029c-14.295-2.202-28.971-3.35-43.933-3.35-148.274 0-268.475 112.494-268.475 251.265s120.2 251.265 268.475 251.265c148.272 0 268.475-112.495 268.475-251.265zM611.207 329.253c21.94 0 39.726 17.786 39.726 39.726s-17.786 39.726-39.726 39.726c-21.94 0-39.726-17.786-39.726-39.726s17.786-39.726 39.726-39.726zM811.571 368.979c0 21.94-17.788 39.726-39.724 39.726-21.943 0-39.724-17.786-39.724-39.726s17.781-39.726 39.724-39.726c21.936 0 39.724 17.786 39.724 39.726z" />
<glyph unicode="&#xe932;" glyph-name="whatsapp1" d="M158.812 28.006l1.77 0.183c58.004 6.085 135.556 16.091 179.78 29.542 52.616-23.252 110.691-36.396 171.92-36.396 235.494 0 426.389 191.020 426.389 426.667s-190.896 426.666-426.389 426.666c-235.495 0-426.389-191.018-426.389-426.666 0-90.71 28.483-174.634 76.75-243.795-6.44-30.881-26.213-77.444-44.147-115.851l-0.549-1.17c-5.37-11.476-10.561-22.199-15.163-31.517-7.423-15.038 4.208-32.629 20.906-31.1 10.3 0.944 22.205 2.092 35.121 3.438zM544.255 367.926l18.427 12.652c0 0 6.969 5.998 20.228 15.14 12.966 8.958 21.321 7.383 27.153 6.284l0.357-0.067c5.873-1.048 45.101-26.525 62.901-47.783 16.756-19.93 11.807-23.667-21.408-48.744-2.173-1.641-4.468-3.373-6.884-5.206-39.281-29.84-66.921-24.672-106.307-16.651-39.333 8.045-109.986 57.973-156.706 123.43s-43.039 102.197-37.506 132.037c5.481 29.864 31.347 55.706 49.774 68.895 0.739 0.53 1.462 1.052 2.171 1.564 16.964 12.257 25.648 18.529 58.669-22.798 30.529-38.18 21.402-55.136 18.090-61.291-0.423-0.786-0.751-1.396-0.89-1.851-1.2-4.023-30.093-26.402-30.093-26.402s-22.133-10.337-11.067-34.447c11.067-24.062 50.373-66.043 72.507-84.424 22.133-18.357 40.586-10.337 40.586-10.337z" />
<glyph unicode="&#xe933;" glyph-name="XBOX-Live" d="M201.653 771.361c-84.594-81.591-137.653-196.219-137.653-323.361 0-101.113 33.537-194.717 90.1-269.802-24.527 166.186 233.761 472.027 233.761 472.027-18.020 19.522-112.625 121.136-186.208 121.136zM512 896c-87.097 0-168.188-25.028-236.764-67.575 35.539 4.505 125.139 6.507 235.763-65.073 106.119 64.572 189.712 70.579 234.261 67.576-68.076 41.046-147.664 65.072-233.26 65.072zM513.001 535.097c-300.836-246.775-313.35-378.922-310.847-410.959 80.59-77.085 189.711-124.138 309.846-124.138 115.629 0 221.25 44.047 300.837 116.129 11.513 38.042 11.513 162.182-299.835 418.968zM824.349 769.359c-73.582 6.507-189.712-120.134-189.712-120.134 122.135-139.156 251.781-352.894 237.767-467.523 55.062 74.585 87.596 166.687 87.596 266.299 0 126.141-52.056 239.767-135.651 321.359zM510.999 763.352c-3.504-2.002-7.008-4.505-10.511-6.507 3.504 2.002 7.008 4.004 10.511 6.507z" />
<glyph unicode="&#xe934;" glyph-name="youtube2" d="M837.808 768.524l-59.458 6.402c-177.911 19.205-357.232 19.205-535.14 0l-57.016-6.402c-33.975-4.024-65.306-21.156-87.89-48.059s-34.807-61.651-34.287-97.48v-349.977c-0.52-35.828 11.702-70.578 34.287-97.48s53.915-44.032 87.89-48.062l59.46-6.4c177.908-19.207 357.229-19.207 535.139 0l57.015 6.4c33.975 4.030 65.302 21.16 87.888 48.062s34.809 61.652 34.289 97.48v349.977c0.519 35.828-11.703 70.577-34.289 97.48s-53.914 44.035-87.888 48.059zM634.178 421.535l-158.424-110.969c-4.538-2.61-9.634-3.97-14.811-3.95s-10.263 1.418-14.783 4.064c-4.519 2.645-8.323 6.451-11.054 11.060s-4.299 9.87-4.558 15.288v221.937c0.010 5.806 1.527 11.5 4.389 16.473s6.959 9.035 11.854 11.753c4.895 2.719 10.404 3.991 15.936 3.681s10.88-2.193 15.47-5.445l158.423-110.968c4.202-2.869 7.654-6.792 10.044-11.412s3.641-9.794 3.641-15.049c0-5.256-1.251-10.429-3.641-15.049s-5.842-8.543-10.044-11.412h-2.443z" />
<glyph unicode="&#xe935;" glyph-name="zelle1" d="M434.585 779.136v84.864c0 4.202 0.859 8.363 2.526 12.246s4.112 7.41 7.194 10.382c3.082 2.971 6.739 5.329 10.766 6.937s8.341 2.436 12.699 2.436h99.556c4.358 0 8.673-0.828 12.699-2.436s7.684-3.965 10.766-6.937c3.082-2.972 5.526-6.499 7.194-10.382s2.526-8.044 2.526-12.246v-84.864h176.976c8.799 0 17.24-3.371 23.464-9.373s9.721-14.141 9.721-22.627v-84.864l-353.985-399.328h309.748c8.806 0 17.247-3.372 23.464-9.373 6.224-6.001 9.721-14.141 9.721-22.627v-82.084c0-8.485-3.496-16.625-9.721-22.623-6.217-6.005-14.658-9.377-23.464-9.377h-165.924v-84.86c0-4.206-0.859-8.36-2.526-12.244s-4.112-7.409-7.194-10.386c-3.082-2.97-6.739-5.325-10.766-6.934s-8.341-2.436-12.699-2.436h-99.556c-4.358 0-8.673 0.827-12.699 2.436s-7.684 3.964-10.766 6.934c-3.082 2.977-5.526 6.502-7.194 10.386s-2.526 8.038-2.526 12.244v84.86h-188.061c-8.801 0-17.242 3.372-23.466 9.377-6.223 5.998-9.719 14.139-9.719 22.623v82.564c-0.007 7.77 2.918 15.277 8.23 21.12l345.757 380.48h-298.667c-4.358 0-8.673 0.828-12.699 2.436s-7.684 3.965-10.766 6.937c-3.082 2.971-5.526 6.499-7.194 10.381s-2.526 8.044-2.526 12.246v82.145c0 4.202 0.858 8.363 2.526 12.246s4.113 7.41 7.194 10.382c3.082 2.971 6.739 5.328 10.766 6.936s8.341 2.436 12.699 2.436l165.926-0.032z" />
<glyph unicode="&#xe936;" glyph-name="zoom1" d="M50.518 643.032c0 35.516 28.791 64.307 64.307 64.307h431.777c86.253 0 156.175-69.922 156.175-156.174v-284.789c0-35.516-28.791-64.304-64.307-64.304h-431.776c-86.253 0-156.175 69.919-156.175 156.172v284.788zM739.525 530.444c0 25.351 11.63 49.3 31.547 64.976l129.463 101.869c24.108 18.97 59.472 1.797 59.472-28.878v-433.984c0-31.126-36.286-48.154-60.226-28.266l-130.406 108.311c-18.915 15.708-29.85 39.017-29.85 63.602v152.37z" />
<glyph unicode="&#xe937;" glyph-name="add" d="M512 0c247.424 0 448 200.576 448 448s-200.576 448-448 448c-247.424 0-448-200.576-448-448s200.576-448 448-448zM512 661.333c17.673 0 32-14.327 32-32v-149.333h149.333c17.673 0 32-14.327 32-32s-14.327-32-32-32h-149.333v-149.333c0-17.673-14.327-32-32-32s-32 14.327-32 32v149.333h-149.333c-17.673 0-32 14.327-32 32s14.327 32 32 32h149.333v149.333c0 17.673 14.327 32 32 32z" />
<glyph unicode="&#xe938;" glyph-name="address2" d="M783.528 235.779c149.965 151.035 149.965 395.911 0 546.945-149.96 151.035-393.096 151.035-543.057 0s-149.961-395.91 0-546.945l207.64-209.126c35.285-35.54 92.493-35.54 127.778 0l207.639 209.126zM512 380.8c-74.851 0-135.529 60.173-135.529 134.4s60.679 134.4 135.529 134.4c74.851 0 135.529-60.173 135.529-134.4s-60.679-134.4-135.529-134.4z" />
<glyph unicode="&#xe939;" glyph-name="arrow_down" d="M301.601 832.634c11.374 12.048 29.885 13.313 42.743 3.428l2.493-2.126 367.574-347.002c21.419-20.22 22.391-53.978 2.172-75.396l-2.155-2.155-367.581-347.307c-12.846-12.139-33.099-11.567-45.236 1.28-11.379 12.045-11.585 30.596-0.982 42.871l2.265 2.368 359.362 339.546-359.352 339.257c-12.048 11.374-13.314 29.885-3.428 42.743l2.126 2.493z" />
<glyph unicode="&#xe93a;" glyph-name="arrow_down2" d="M127.366 237.602c-12.048 11.371-13.314 29.884-3.428 42.743l2.126 2.492 347.002 367.574c20.22 21.419 53.978 22.39 75.396 2.17l2.155-2.154 347.307-367.582c12.139-12.847 11.567-33.097-1.28-45.235-12.045-11.379-30.596-11.584-42.871-0.981l-2.368 2.266-339.546 359.362-339.257-359.353c-11.374-12.049-29.885-13.312-42.743-3.43l-2.493 2.129z" />
<glyph unicode="&#xe93b;" glyph-name="arrow_down3" d="M896.636 658.405c12.045-11.374 13.312-29.885 3.426-42.744l-2.125-2.493-347.004-367.575c-20.22-21.419-53.978-22.391-75.396-2.172l-2.155 2.155-347.309 367.582c-12.137 12.846-11.563 33.099 1.283 45.236 12.043 11.379 30.596 11.586 42.869 0.982l2.367-2.265 339.548-359.363 339.255 359.353c11.375 12.048 29.888 13.314 42.743 3.428l2.496-2.126z" />
<glyph unicode="&#xe93c;" glyph-name="delete" d="M608 896c53.018 0 96-42.981 96-96v-74.667h181.333c17.673 0 32-14.327 32-32s-14.327-32-32-32h-746.667c-17.673 0-32 14.327-32 32s14.327 32 32 32h181.333v74.667c0 53.019 42.981 96 96 96h192zM384 725.333h256v74.667c0 16.634-12.689 30.303-28.919 31.854l-3.081 0.146h-192c-16.634 0-30.303-12.691-31.854-28.918l-0.146-3.082v-74.667zM233.055 586.626c16.612 0.838 30.904-11.148 33.27-27.277l0.302-3.071 21.374-424.567c0-30.579 22.365-55.095 49.994-56.934l3.34-0.111h341.333c28.023 0 51.465 23.339 53.265 54.835l0.111 3.819 21.333 422.958c0.887 17.651 15.919 31.238 33.57 30.348 16.61-0.838 29.623-14.202 30.357-30.486l-0.013-3.085-21.291-421.343c0-64.969-49.762-118.443-112.704-120.951l-4.629-0.094h-341.333c-63.563 0-114.839 51.925-117.207 114.812l-0.085 4.621-21.333 422.956c-0.89 17.651 12.697 32.681 30.348 33.571zM416 512c-17.673 0-32-14.327-32-32v-192c0-17.673 14.327-32 32-32s32 14.327 32 32v192c0 17.673-14.327 32-32 32zM576 480c0 17.673 14.327 32 32 32s32-14.327 32-32v-192c0-17.673-14.327-32-32-32s-32 14.327-32 32v192z" />
<glyph unicode="&#xe93d;" glyph-name="download" d="M477.538 861.922c0 18.821 15.428 34.078 34.462 34.078s34.462-15.257 34.462-34.078v-491.358l159.241 157.47c13.457 13.308 35.277 13.308 48.734 0 13.461-13.308 13.461-34.884 0-48.196l-217.916-215.492c-13.457-13.308-35.277-13.308-48.738 0l-217.917 215.492c-13.458 13.312-13.458 34.889 0 48.196s35.278 13.308 48.736 0l158.937-157.167v491.055zM959.842 331.315c-1.668 17.284-16.393 30.797-34.304 30.797-19.034 0-34.462-15.258-34.462-34.078v-181.747l-0.119-3.738c-1.946-29.623-26.863-53.060-57.314-53.060l-647.060 0.119c-29.961 1.924-53.66 26.564-53.66 56.678v181.747l-0.157 3.281c-1.67 17.284-16.391 30.797-34.304 30.797-19.032 0-34.461-15.258-34.461-34.078v-181.747l0.1-5.026c2.667-66.679 58.175-119.927 126.259-119.927l648.365 0.098c67.43 2.637 121.276 57.527 121.276 124.855v181.747l-0.158 3.281z" />
<glyph unicode="&#xe93e;" glyph-name="drap" d="M256 704c0 35.346 28.654 64 64 64s64-28.654 64-64c0-35.346-28.654-64-64-64s-64 28.654-64 64zM640 704c0 35.346 28.655 64 64 64s64-28.654 64-64c0-35.346-28.655-64-64-64s-64 28.654-64 64zM256 448c0 35.345 28.654 64 64 64s64-28.655 64-64c0-35.345-28.654-64-64-64s-64 28.655-64 64zM640 448c0 35.345 28.655 64 64 64s64-28.655 64-64c0-35.345-28.655-64-64-64s-64 28.655-64 64zM256 192c0 35.345 28.654 64 64 64s64-28.655 64-64c0-35.345-28.654-64-64-64s-64 28.655-64 64zM640 192c0 35.345 28.655 64 64 64s64-28.655 64-64c0-35.345-28.655-64-64-64s-64 28.655-64 64z" />
<glyph unicode="&#xe93f;" glyph-name="rouned-email" horiz-adv-x="975" d="M487.619 1.019c246.862 0 446.986 200.124 446.986 446.986s-200.124 446.983-446.986 446.983c-246.862 0-446.984-200.122-446.984-446.983s200.122-446.986 446.984-446.986zM679.38 660.854c35.089 0 63.629-28.944 63.664-64.353v-3.448l-227.455-150.753c-11.205-7.426-31.51-7.592-42.813-0.332l-240.573 154.035v0.497c0 35.542 28.543 64.353 63.664 64.353h383.514zM232.2 533.141l213.959-141.447c27.555-18.081 69.352-17.808 96.683 0.785l200.197 136.556v-218.393c0-36.571-28.511-66.219-63.634-66.219h-383.537c-35.154 0-63.667 29.75-63.667 66.253v222.464z" />
<glyph unicode="&#xe940;" glyph-name="rouned-link" horiz-adv-x="975" d="M487.618 1.019c246.863 0 446.982 200.124 446.982 446.986s-200.119 446.983-446.982 446.983c-246.863 0-446.984-200.122-446.984-446.983s200.122-446.986 446.984-446.986zM538.166 653.952c54.16 51.114 140.308 50.383 193.556-1.642 52.219-51.025 53.872-132.917 4.203-186.112l-2.76-2.872-71.202-69.573c-28.311-27.672-67.55-41.974-107.52-39.175-39.965 2.794-76.704 22.406-100.68 53.726-6.365 8.319-4.579 20.066 3.991 26.239 8.569 6.178 20.677 4.447 27.042-3.872 17.272-22.562 43.701-36.674 72.427-38.683 27.472-1.921 54.472 7.402 74.606 25.649l2.701 2.545 70.973 69.341c37.712 38.154 37.171 98.852-1.214 136.358-37.478 36.62-97.524 37.919-136.411 3.707l-2.56-2.334-40.823-39.658c-7.548-7.328-19.783-7.335-27.336-0.015-7.080 6.862-7.529 17.728-1.341 25.098l1.326 1.425 41.023 39.849zM353.91 502.256c28.31 27.672 67.546 41.973 107.518 39.176 39.966-2.797 76.703-22.41 100.68-53.729 6.368-8.315 4.579-20.062-3.989-26.24-8.572-6.173-20.675-4.442-27.043 3.872-17.271 22.566-43.702 36.675-72.428 38.685-27.471 1.922-54.471-7.4-74.603-25.648l-2.702-2.544-70.972-69.344c-37.713-38.151-37.174-98.85 1.211-136.358 37.478-36.62 97.523-37.917 136.376-3.74l2.558 2.331 40.59 39.658c7.519 7.348 19.758 7.387 27.331 0.093 7.105-6.846 7.582-17.71 1.419-25.098l-1.321-1.429-40.827-39.887c-54.163-51.112-140.311-50.381-193.555 1.643-52.222 51.024-53.874 132.915-4.206 186.114l2.76 2.872 71.204 69.572z" />
<glyph unicode="&#xe941;" glyph-name="rouned-workphone" horiz-adv-x="975" d="M441.34 701.901h92.554c4.569 0 8.275-3.705 8.275-8.275s-3.701-8.274-8.275-8.274h-92.554c-4.57 0-8.275 3.704-8.275 8.274s3.704 8.275 8.275 8.275zM454.090 258.033c0 18.515 15.009 33.524 33.524 33.524s33.524-15.009 33.524-33.524c0-18.515-15.009-33.524-33.524-33.524s-33.524 15.009-33.524 33.524zM621.709 325.086h-268.193v335.238h268.193v-335.238zM487.618 1.019c246.863 0 446.982 200.124 446.982 446.986s-200.119 446.983-446.982 446.983c-246.863 0-446.984-200.122-446.984-446.983s200.122-446.986 446.984-446.986zM604.95 727.369c27.658 0 50.288-22.628 50.288-50.286v-435.809c0-27.658-22.63-50.288-50.288-50.288h-234.666c-27.657 0-50.285 22.63-50.285 50.288v435.809c0 27.658 22.628 50.286 50.285 50.286h234.666z" />
<glyph unicode="&#xe942;" glyph-name="Icsnapchat" d="M519.681 874.631c36.961 0 162.293-10.506 221.395-145.458 19.749-45.415 15.045-122.541 11.162-184.516l-0.11-2.284c-0.453-6.853-0.827-13.134-1.119-19.415 2.794-1.713 7.578-3.426 14.965-3.426 11.205 0.609 24.605 4.568 38.568 11.459 5.376 2.726 11.323 4.084 17.328 3.959 6.795 0 13.4-1.104 19.003-3.427 16.801-5.672 27.399-18.235 27.399-31.901 0.563-17.093-14.555-31.939-45.283-44.464-3.328-1.104-7.804-2.855-12.844-4.53-16.801-5.139-42.525-13.704-49.766-30.835-3.365-8.527-2.282-19.948 4.476-33.043l0.563-0.571c2.238-5.177 56.971-132.286 178.871-152.805 9.516-1.675 16.238-10.275 15.682-19.374-0.022-2.94-0.592-5.851-1.682-8.565-8.96-21.665-47.528-37.617-117.453-48.384-2.209-3.467-4.484-14.277-6.122-21.701-1.090-6.817-2.765-13.707-5.003-21.051-2.838-10.32-10.086-15.419-20.721-15.419h-1.119c-6.766 0.351-13.488 1.295-20.092 2.816-15.616 3.43-31.547 5.149-47.521 5.142-11.203 0-22.366-0.571-34.090-2.816-22.401-3.964-41.927-17.664-64.328-33.653-31.846-22.806-68.173-49.035-122.979-49.035-2.24 0-4.443 0.571-6.72 0.571h-5.563c-54.807 0-90.612 25.695-122.42 49.035-22.363 15.989-41.329 29.652-63.73 33.653-11.47 1.763-23.047 2.706-34.647 2.816-20.16 0-35.766-3.387-47.489-5.676-6.617-1.587-13.368-2.531-20.16-2.816-13.963 0-19.526 8.528-21.766 15.989-2.278 7.307-3.36 14.811-5.040 21.584-1.717 6.89-3.92 18.805-6.197 21.701-71.608 8.448-110.137 24.437-119.060 46.672-1.224 2.692-1.921 5.595-2.053 8.565-0.172 4.623 1.33 9.157 4.221 12.727 2.891 3.576 6.969 5.94 11.459 6.646 121.86 20.557 176.592 147.666 178.87 153.034l0.598 1.104c6.72 13.134 8.362 24.554 4.443 33.081-7.281 16.522-33.004 25.049-49.73 30.798-4.42 1.147-8.741 2.662-12.918 4.53-41.329 16.56-46.929 35.403-44.69 48.461 3.36 18.235 25.163 30.188 43.607 30.188 5.451 0 10.080-1.104 14.299-2.817 15.681-7.385 29.458-11.421 41.217-11.421 8.736 0 14.337 2.284 17.36 3.997l-1.717 21.661c-3.659 61.899-8.4 138.987 11.462 184.135 57.457 134.266 182.416 144.545 219.303 144.545l15.643 0.571h2.24v-0.038z" />
<glyph unicode="&#xe943;" d="M512 917.333c259.206 0 469.333-210.128 469.333-469.333s-210.128-469.333-469.333-469.333c-259.206 0-469.333 210.128-469.333 469.333s210.128 469.333 469.333 469.333z" />
<glyph unicode="&#xe944;" d="M981.333 448c0-259.206-210.128-469.333-469.333-469.333s-469.333 210.128-469.333 469.333c0 259.206 210.128 469.333 469.333 469.333s469.333-210.128 469.333-469.333z" />
<glyph unicode="&#xe945;" glyph-name="link2" d="M546.354 805.751c95.778 93.046 248.161 91.708 342.31-2.988 93.952-94.503 95.261-247.154 2.97-343.274-0.212-0.218-0.424-0.433-0.636-0.647l-115.134-115.811c-50.025-50.328-119.411-76.406-190.156-71.309-70.744 5.096-135.687 40.84-178.037 97.787-17.156 23.069-12.34 55.661 10.756 72.797s55.726 12.325 72.881-10.743c24.356-32.75 61.56-53.14 101.895-56.046 40.331-2.905 80.007 11.941 108.717 40.829l114.809 115.48c52.868 55.38 52.005 143.296-1.997 197.611-53.819 54.139-140.649 54.973-195.487 1.957l-65.73-65.729c-20.332-20.332-53.315-20.351-73.671-0.042s-20.374 53.253-0.042 73.585l66.553 66.545zM248.147 552.982c50.022 50.329 119.401 76.399 190.145 71.303s135.688-40.841 178.038-97.788c17.156-23.069 12.34-55.661-10.756-72.796s-55.726-12.326-72.882 10.742c-24.355 32.75-61.559 53.14-101.895 56.046-40.331 2.905-80.008-11.941-108.717-40.828l-114.809-115.48c-52.868-55.38-52.005-143.297 1.995-197.613 53.808-54.118 140.597-54.974 195.439-2.004l65.29 65.671c20.272 20.391 53.255 20.506 73.67 0.257s20.53-53.194 0.257-73.586l-65.634-66.011c-0.212-0.219-0.427-0.432-0.643-0.636-95.779-93.052-248.162-91.714-342.308 2.984-93.954 94.501-95.267 247.154-2.97 343.274 0.208 0.218 0.419 0.434 0.632 0.647l115.147 115.818z" />
<glyph unicode="&#xe946;" d="M587.46 270.699l-284.054 375.468h133.129l284.058-375.468h-133.133zM610.159 301.99h50.923l-244.177 312.887h-50.921l244.175-312.887z" />
<glyph unicode="&#xe947;" d="M661.082 646.167h47.241l-156.787-159.92-26.79 20.86 136.337 139.060z" />
<glyph unicode="&#xe948;" glyph-name="minus" d="M736 448c0 17.673-14.327 32-32 32l-387.082-0.145c-16.227-1.553-28.918-15.223-28.918-31.855 0-17.673 14.327-32 32-32l387.081 0.145c16.23 1.553 28.919 15.223 28.919 31.855zM512 896c247.424 0 448-200.576 448-448s-200.576-448-448-448c-247.424 0-448 200.576-448 448s200.576 448 448 448zM512 832c-212.078 0-384-171.922-384-384s171.922-384 384-384c212.079 0 384 171.921 384 384s-171.921 384-384 384z" />
<glyph unicode="&#xe949;" d="M467.008 437.572l-163.602-166.874h47.24l143.152 146.018-26.79 20.855z" />
<glyph unicode="&#xe94a;" glyph-name="Pinterest" d="M455.728 283.642c27.667-0.915 52.656-38.429 125.838-38.429 137.44-0.915 232.039 107.052 261.494 248.873 102.634 491.341-596.168 530.685-667.566 126.267-16.957-95.157 10.71-204.954 83-240.639 55.333-27.449 58.903 51.239 41.946 85.093-74.967 150.055 15.172 285.471 132.977 323.901 110.666 36.598 189.203 6.404 248.998-56.729 76.75-81.432 41.946-302.856-49.085-373.309-32.129-24.705-91.031-30.194-121.375-0.915-62.473 59.473 33.914 185.74 19.634 278.152-14.28 91.497-155.29 77.773-162.429-56.729-3.57-68.623 16.064-88.752 0.892-157.375-24.096-109.797-97.279-333.966-45.515-421.803 75.859 36.601 113.343 256.192 131.192 283.642z" />
<glyph unicode="&#xe94b;" glyph-name="right" d="M519.851 106.108c-11.332 12.083-11.473 30.639-0.823 42.871l2.274 2.359 282.155 264.661h-654.123c-17.673 0-32 14.327-32 32 0 16.631 12.691 30.302 28.918 31.855l3.082 0.145h654.464l-282.487 264.649c-12.087 11.329-13.423 29.836-3.584 42.731l2.116 2.5c11.328 12.090 29.833 13.424 42.731 3.587l2.5-2.116 324.727-304.285c21.495-20.139 22.592-53.892 2.449-75.383l-2.432-2.432-324.736-304.589c-12.89-12.092-33.139-11.443-45.231 1.446z" />
<glyph unicode="&#xe94c;" glyph-name="right_up" d="M156.415 789.301c0 23.582 19.103 42.699 42.668 42.699h654.25c23.565 0 42.667-19.117 42.667-42.699s-19.102-42.699-42.667-42.699h-654.25c-23.565 0-42.668 19.117-42.668 42.699zM853.333 832c23.565 0 42.667-19.117 42.667-42.699v-654.714c0-23.582-19.102-42.697-42.667-42.697s-42.671 19.115-42.671 42.697v654.714c0 23.582 19.106 42.699 42.671 42.699zM864.602 801.125c16.666-16.675 16.666-43.71 0-60.385l-663.762-664.235c-16.663-16.674-43.68-16.674-60.343 0s-16.663 43.712 0 60.386l663.765 664.233c16.661 16.675 43.678 16.675 60.339 0z" />
<glyph unicode="&#xe94d;" glyph-name="instagram_logo" d="M704 768c70.694 0 128-57.308 128-128v-384c0-70.694-57.306-128-128-128h-384c-70.692 0-128 57.306-128 128v384c0 70.692 57.308 128 128 128h384zM320 853.333c-117.821 0-213.333-95.513-213.333-213.333v-384c0-117.82 95.513-213.333 213.333-213.333h384c117.82 0 213.333 95.514 213.333 213.333v384c0 117.821-95.514 213.333-213.333 213.333h-384zM405.333 448c0 58.91 47.757 106.667 106.667 106.667s106.667-47.757 106.667-106.667c0-58.91-47.757-106.667-106.667-106.667s-106.667 47.757-106.667 106.667zM512 640c-106.039 0-192-85.961-192-192s85.961-192 192-192c106.039 0 192 85.961 192 192s-85.961 192-192 192zM661.333 650.667c0 29.455 23.876 53.333 53.333 53.333s53.333-23.878 53.333-53.333c0-29.455-23.876-53.333-53.333-53.333s-53.333 23.878-53.333 53.333z" />
<glyph unicode="&#xe94e;" glyph-name="template" d="M853.333 789.333v-277.333h-682.667v277.333h682.667zM170.667 853.333c-35.346 0-64-28.654-64-64v-277.333c0-35.345 28.654-64 64-64h682.667c35.345 0 64 28.655 64 64v277.333c0 35.346-28.655 64-64 64h-682.667zM554.667 320v-213.333h-384v213.333h384zM170.667 384c-35.346 0-64-28.655-64-64v-213.333c0-35.345 28.654-64 64-64h384c35.345 0 64 28.655 64 64v213.333c0 35.345-28.655 64-64 64h-384zM853.333 320v-213.333h-128v213.333h128zM725.333 384c-35.345 0-64-28.655-64-64v-213.333c0-35.345 28.655-64 64-64h128c35.345 0 64 28.655 64 64v213.333c0 35.345-28.655 64-64 64h-128z" />
<glyph unicode="&#xe94f;" glyph-name="email3" d="M826.667 810.667c62.4 0 112-48.588 112-109.714v-502.855c0-61.129-49.6-109.717-112-109.717h-629.333c-62.4 0-112 48.589-112 109.717v502.855c0 61.126 49.6 109.714 112 109.714h629.333zM197.334 747.973c-27.2 0-48-20.375-48-47.020v-21.943l370.666-192.785 354.667 192.785v21.943c0 26.645-20.8 47.020-48 47.020h-629.332zM197.334 151.074h629.332c27.2 0 48 20.378 48 47.023v407.247l-354.667-191.217-370.666 192.785v-408.815c0-26.645 20.8-47.023 48-47.023z" />
<glyph unicode="&#xe950;" glyph-name="Twitch" d="M187.728 874.669l-81.067-133.333v-613.337h216.178v-106.664h108.089l108.088 106.664h135.112l243.201 240.003v506.666h-729.601zM809.238 421.337l-135.11-133.334h-135.112l-108.088-106.667v106.667h-162.134v480h540.444v-346.666zM620.083 661.337h81.066v-213.334h-81.066v213.334zM457.95 661.337h81.066v-213.334h-81.066v213.334z" />
<glyph unicode="&#xe951;" glyph-name="website" d="M831.993 746.663v-405.333c0-11.783-9.552-21.334-21.328-21.334h-597.337c-11.783 0-21.334 9.551-21.334 21.334v405.333c0 11.783 9.551 21.334 21.334 21.334h597.337c11.776 0 21.328-9.551 21.328-21.334zM191.994 853.331c-47.128 0-85.334-38.205-85.334-85.334v-448c0-47.128 38.205-85.334 85.334-85.334h639.999c47.133 0 85.336 38.205 85.336 85.334v448c0 47.128-38.203 85.334-85.336 85.334h-639.999zM511.994 85.328c-23.564 0-42.666 19.105-42.666 42.672v106.663c0 23.564 19.102 42.667 42.666 42.667s42.666-19.103 42.666-42.667v-106.663c0-23.567-19.102-42.672-42.666-42.672zM703.994 106.664c0-23.567-19.103-42.664-42.666-42.664h-298.667c-23.564 0-42.666 19.098-42.666 42.664s19.103 42.664 42.666 42.664h298.667c23.564 0 42.666-19.098 42.666-42.664zM417.4 651.958c12.348-12.497 12.348-32.758 0-45.255l-72.471-73.346 72.471-73.345c12.348-12.497 12.348-32.758 0-45.255s-32.367-12.497-44.715 0l-79.923 80.888c-20.579 20.828-20.579 54.597 0.001 75.425l79.922 80.889c12.348 12.496 32.367 12.496 44.715 0zM606.588 653.989c-12.348-12.497-12.348-32.758 0-45.255l72.471-73.346-72.471-73.345c-12.348-12.497-12.348-32.758 0-45.255s32.367-12.497 44.714 0l79.923 80.888c20.58 20.828 20.58 54.597 0 75.425l-79.923 80.889c-12.347 12.496-32.367 12.496-44.714 0zM512.837 673.088c4.574 17.071 22.121 27.201 39.192 22.627s27.201-22.121 22.627-39.192l-63.741-237.885c-4.574-17.071-22.121-27.201-39.192-22.627s-27.202 22.121-22.627 39.192l63.741 237.885z" />
<glyph unicode="&#xe952;" glyph-name="x1" d="M687.57 64c-13.367 0-25.961 6.261-34.026 16.925l-542.339 716.87c-10.631 14.052-0.607 34.205 17.014 34.205h208.201c13.367 0 25.961-6.265 34.026-16.925l542.34-716.874c10.628-14.051 0.607-34.202-17.013-34.202h-208.203zM712.779 128h104.161l-499.455 640h-104.157l499.451-640zM810.664 825.601c4.008 4.092 9.501 6.399 15.236 6.399h62.267c9.457 0 14.234-11.385 7.621-18.134l-302.921-308.977-54.798 42.666 272.595 278.046zM419.969 405.334l-316.862-323.201c-6.617-6.751-1.836-18.132 7.616-18.132h35.39c22.924 0 44.885 9.223 60.934 25.593l267.718 273.074-54.796 42.667z" />
<glyph unicode="&#xe953;" glyph-name="Xing" d="M460.717 528.5c-3.15-5.775-44.1-77.7-122.675-216.125-8.575-14.525-18.9-21.875-30.975-21.875h-113.924c-13.475 0-21.176 13.125-14.875 25.2l120.749 212.275c0.35 0 0.35 0.175 0 0.525l-76.825 132.3c-7.525 13.65 0.525 24.675 14.875 24.675h113.925c12.775 0 23.275-7.175 31.5-21.35l78.226-135.624zM845.539 815.325l-251.998-442.75v-0.525l160.298-291.549c6.824-12.427 0.351-24.678-14.87-24.678h-114.103c-13.3 0-23.801 7-31.5 21.35l-161.7 294.877c5.775 10.15 90.125 158.9 253.4 446.6 8.050 14.175 18.2 21.35 30.625 21.35h114.978c14 0 21.526-11.726 14.87-24.675z" />
<glyph unicode="&#xe954;" glyph-name="warn" d="M512 896c247.424 0 448-200.576 448-448s-200.576-448-448-448c-247.424 0-448 200.576-448 448s200.576 448 448 448zM512 320c-23.565 0-42.667-19.102-42.667-42.667s19.102-42.667 42.667-42.667c23.565 0 42.667 19.102 42.667 42.667s-19.102 42.667-42.667 42.667zM546.577 491.268l7.228 125.727c0.87 14.031-6.413 27.31-18.709 34.121l-1.263 0.7c-13.303 7.369-29.431 7.495-42.846 0.337l-3.46-2.001c-11.887-7.674-18.812-21.228-17.907-35.514l1.429-22.291 11.913-203.12c1.344-15.036 13.943-26.56 29.039-26.56s27.695 11.524 29.039 26.56l5.538 102.042z" />
<glyph unicode="&#xe955;" glyph-name="add1" d="M543.855 813.748l0.145-3.082v-330.667h330.667c17.673 0 32-14.327 32-32 0-16.631-12.689-30.302-28.919-31.855l-3.081-0.145h-330.667v-330.667c0-17.673-14.327-32-32-32-16.631 0-30.302 12.689-31.855 28.919l-0.145 3.081v330.667h-330.667c-17.673 0-32 14.327-32 32 0 16.631 12.691 30.302 28.918 31.855l3.082 0.145h330.667v330.667c0 17.673 14.327 32 32 32 16.631 0 30.302-12.691 31.855-28.918z" />
<glyph unicode="&#xe956;" glyph-name="arrow_left" d="M657.088 832.634c-11.371 12.048-29.884 13.313-42.743 3.428l-2.492-2.126-367.574-347.002c-21.419-20.224-22.39-53.978-2.17-75.396l2.153-2.155 367.582-347.311c12.847-12.134 33.101-11.563 45.235 1.284 11.379 12.045 11.588 30.596 0.981 42.871l-2.261 2.364-359.365 339.55 359.352 339.257c12.049 11.374 13.316 29.885 3.43 42.743l-2.129 2.493z" />
<glyph unicode="&#xe957;" glyph-name="card" d="M704 693.333c64.802 0 117.333-52.532 117.333-117.333s-52.531-117.333-117.333-117.333c-64.802 0-117.333 52.531-117.333 117.333s52.531 117.333 117.333 117.333zM650.667 576c0-29.455 23.876-53.333 53.333-53.333s53.333 23.878 53.333 53.333c0 29.455-23.876 53.333-53.333 53.333s-53.333-23.878-53.333-53.333zM213.333 394.667c0 17.673 14.327 32 32 32h170.667c17.673 0 32-14.327 32-32s-14.327-32-32-32h-170.667c-17.673 0-32 14.327-32 32zM245.333 277.333c-17.673 0-32-14.327-32-32s14.327-32 32-32h320c17.673 0 32 14.327 32 32s-14.327 32-32 32h-320zM192 821.333h640c64.802 0 117.333-52.532 117.333-117.333v-512c0-64.802-52.531-117.333-117.333-117.333h-640c-64.801 0-117.333 52.531-117.333 117.333v512c0 64.801 52.532 117.333 117.333 117.333zM138.667 704v-512c0-29.457 23.878-53.333 53.333-53.333h640c29.457 0 53.333 23.876 53.333 53.333v512c0 29.455-23.876 53.333-53.333 53.333h-640c-29.455 0-53.333-23.878-53.333-53.333z" />
<glyph unicode="&#xe958;" glyph-name="design" d="M783.211 794.439c15.552-8.402 21.342-27.817 12.941-43.366s-27.814-21.342-43.362-12.94c-151.808 82.029-355.863 89.341-494.907-16.013-172.037-130.353-179.43-362.457-64.079-510.451 10.864-13.939 8.372-34.048-5.567-44.911-13.939-10.867-34.047-8.371-44.911 5.568-135.751 174.165-127.061 447.016 75.907 600.804 161.633 122.47 392.045 114.214 563.979 21.309zM956.45 585.399c10.761-34.998 15.697-69.594 13.828-96.956-6.285-92.109-42.423-141.747-104.521-166.007-5.227-2.044-10.547-3.891-16.346-5.713l-10.167-3.025-18.411-5.18-3.354-1.003-5.623-1.801-4.297-1.54c-0.614-0.23-1.178-0.457-1.694-0.67l-2.551-1.139-1.549-0.887-0.687-0.627c-2.133-3.631-3.405-8.222-3.947-15.902l-0.256-5.602-0.047-6.652 0.29-12.258 0.943-21.717 0.303-10.155c0.034-1.579 0.055-3.106 0.068-4.591l-0.051-8.491c-0.090-4.070-0.277-7.936-0.572-11.84l-0.747-7.936c-3.712-33.545-15.663-62.263-39.159-87.014-44.446-46.81-95.859-69.687-157.030-76.501-17.562-1.954-33.387 10.697-35.345 28.262-1.954 17.566 10.697 33.391 28.262 35.345 46.993 5.235 84.382 21.871 117.7 56.96 13.18 13.884 19.699 29.547 21.956 49.98l0.303 2.948 0.431 5.909c0.051 1.003 0.098 2.018 0.132 3.055l0.115 6.537-0.085 7.403-0.273 8.64-0.981 22.541-0.29 10.961c-0.457 29.299 2.419 44.386 13.12 62.575 11.392 19.358 26.492 27.627 55.407 36.186l23.97 6.788c6.601 1.95 12.083 3.776 17.169 5.764 38.929 15.211 59.358 43.268 63.962 110.754 1.289 18.893-2.556 45.827-11.153 73.793-5.193 16.893 4.292 34.797 21.184 39.991 16.896 5.193 34.799-4.291 39.991-21.184zM597.333 682.663c0 35.346-28.655 64-64 64s-64-28.654-64-64c0-35.346 28.655-64 64-64s64 28.654 64 64zM512 682.663c0 11.782 9.553 21.333 21.333 21.333s21.333-9.551 21.333-21.333c0-11.782-9.553-21.333-21.333-21.333s-21.333 9.551-21.333 21.333zM341.333 682.663c35.346 0 64-28.654 64-64s-28.654-64-64-64c-35.346 0-64 28.654-64 64s28.654 64 64 64zM341.333 639.997c-11.782 0-21.333-9.551-21.333-21.333s9.551-21.333 21.333-21.333c11.782 0 21.333 9.551 21.333 21.333s-9.551 21.333-21.333 21.333zM277.333 511.996c35.346 0 64-28.655 64-64s-28.654-64-64-64c-35.346 0-64 28.655-64 64s28.654 64 64 64zM277.333 469.329c-11.782 0-21.333-9.549-21.333-21.333 0-11.78 9.551-21.333 21.333-21.333s21.333 9.553 21.333 21.333c0 11.785-9.551 21.333-21.333 21.333zM835.277 738.557c24.986 22.324 63.057 21.254 86.75-2.438s24.764-61.762 2.436-86.748l-306.449-342.979c-29.158-32.636-79.258-35.456-111.893-6.293-1.109 0.99-2.189 2.010-3.238 3.059l-13.82 13.82c-30.946 30.946-30.946 81.122 0 112.068l3.238 3.059 342.976 306.451zM880.41 688.734c1.446 1.617 1.374 4.079-0.158 5.612s-3.994 1.602-5.611 0.158l-343.804-307.227c-7.876-7.876-7.876-20.651 0-28.527l14.225-14.212 2.261-1.852c8.26-5.815 19.746-4.646 26.637 3.068l306.449 342.98zM391.977 311.787c-21.389-4.89-37.637-14.413-52.854-30.524l-5.394-5.751-2.987-3.422-3.15-3.964-6.298-8.687-27.913-40.751c-20.928-30.741-57.389-61.905-109.562-92.847-23.399-13.879-17.185-49.331 9.539-54.426 85.334-16.26 155.786-18.325 211.737-5.636 86.976 19.721 132.357 94.669 114.56 169.929-15.083 63.77-70.899 89.067-127.677 76.079zM462.161 222.114c10.321-43.644-15.531-86.34-70.131-98.722l-6.499-1.374c-28.583-5.619-62.65-6.869-102.121-3.644l-5.202 0.469 1.667 1.293c26.25 21.103 47.042 42.833 62.341 65.306l26.913 39.275 5.505 7.526 3.924 4.693 3.509 3.759c7.342 7.77 13.306 11.268 23.080 13.504 27.967 6.396 50.311-3.733 57.014-32.085z" />
<glyph unicode="&#xe959;" glyph-name="edit" d="M150.778 198.43l2.351 151.27c0.345 22.17 9.305 43.337 24.983 59.017l432.072 432.071c4.164 4.166 8.653 7.811 13.385 10.935 33.126 21.87 78.135 18.225 107.294-10.935l105.596-105.594c33.327-33.325 33.327-87.355 0-120.68l-432.072-432.071c-15.678-15.68-36.844-24.64-59.013-24.986l-151.271-2.351c-0.016 0-0.032 0-0.048 0-24.052-0.346-43.64 19.268-43.277 43.324 0-0.004 0 0.009 0 0zM217.122 348.706l-2.008-129.263 129.265 2.005c5.542 0.090 10.833 2.33 14.753 6.246l432.070 432.073c8.333 8.331 8.333 21.839 0 30.17 0 0 0 0 0 0l-105.591 105.594c-8.333 8.331-21.841 8.331-30.17 0l-432.074-432.073c-0.49-0.491-0.954-1.003-1.39-1.532-3.056-3.716-4.78-8.371-4.855-13.222zM85.333 53.333c0 17.673 14.327 32 32 32h789.333c17.673 0 32-14.327 32-32s-14.327-32-32-32h-789.333c-17.673 0-32 14.327-32 32z" />
<glyph unicode="&#xe95a;" glyph-name="close" d="M836.326 123.674c12.498 12.498 12.498 32.758 0 45.256l-279.071 279.072 281.144 281.354c10.378 12.571 9.687 31.21-2.074 42.972-12.498 12.497-32.758 12.497-45.256 0l-279.072-279.072-281.354 281.147c-12.571 10.378-31.21 9.686-42.972-2.076-12.497-12.497-12.497-32.758 0-45.255l279.072-279.072-281.147-281.355c-10.378-12.57-9.686-31.212 2.076-42.972 12.497-12.498 32.758-12.498 45.255 0l279.072 279.071 281.355-281.144c12.57-10.378 31.212-9.687 42.972 2.074z" />
<glyph unicode="&#xe95b;" glyph-name="share" horiz-adv-x="1097" d="M935.973 840.786c2.904-6.715 4.381-13.94 4.381-21.224l-0.183-4.374-58.222-698.686c-2.45-29.352-28.226-51.163-57.578-48.72-6.385 0.534-12.61 2.209-18.381 4.937l-4.235 2.238-305.169 179.515c-15.233 8.961-20.318 28.573-11.358 43.807s28.574 20.318 43.807 11.358l290.529-170.885 50.747 608.879-459.276-418.907v-201.302l52.122 52.114c12.499 12.5 32.76 12.493 45.257 0 12.496-12.5 12.496-32.761 0-45.253l-106.732-106.737c-19.463-19.463-52.267-6.824-54.506 19.734l-0.121 2.896v292.661c0 7.872 2.9 15.427 8.079 21.255l2.357 2.388 443.086 404.148-608.145-262.981 98.982-58.232c15.233-8.961 20.317-28.575 11.356-43.808s-28.573-20.318-43.807-11.357l-117.080 68.871c-25.388 14.934-33.863 47.623-18.929 73.010 5.018 8.531 12.295 15.472 20.991 20.081l3.811 1.831 718.093 310.528c27.041 11.691 58.434-0.748 70.122-27.784z" />
<glyph unicode="&#xe95c;" glyph-name="post" d="M918.005 673.608c11.765-11.762 12.453-30.401 2.076-42.972l-2.076-2.283-181.020-181.019c-12.493-12.497-32.757-12.497-45.249 0-11.765 11.762-12.459 30.401-2.076 42.972l2.076 2.283 136.732 136.744h-60.462c-182.619 0-330.666-148.044-330.666-330.667 0-17.675-14.327-32-32-32s-32 14.325-32 32c0 215.573 172.836 390.778 387.498 394.603l7.168 0.064h39.771l-116.042 116.039c-11.765 11.762-12.459 30.401-2.076 42.972l2.076 2.283c11.759 11.762 30.401 12.454 42.968 2.075l2.281-2.075 181.020-181.019zM457.77 842.667l-227.816-0.093c-62.614-2.476-112.614-54.019-112.614-117.24v-554.667l0.093-4.722c2.476-62.612 54.019-112.612 117.24-112.612l559.387 0.091c62.612 2.48 112.612 54.022 112.612 117.242v223.097l-0.148 3.082c-1.547 16.228-15.218 28.918-31.852 28.918-17.67 0-32-14.327-32-32v-223.097l-0.114-3.504c-1.803-27.824-24.94-49.829-53.22-49.829l-558.172 0.114c-27.82 1.803-49.827 24.94-49.827 53.22v554.667l0.114 3.507c1.806 27.82 24.943 49.827 53.22 49.827l226.179 0.147c16.227 1.55 28.918 15.219 28.918 31.853 0 17.673-14.327 32-32 32z" />
<glyph unicode="&#xe95d;" glyph-name="links" d="M882.496 796.597c-88.154 88.768-230.775 90.016-320.448 2.801l-67.917-67.992-2.197-2.432c-10.244-12.575-9.502-31.114 2.223-42.823 12.501-12.49 32.764-12.478 45.252 0.026l67.588 67.667 4.241 3.982c64.384 58.374 163.793 56.158 225.843-6.326 63.548-63.994 64.444-167.561 2.005-232.661l-117.5-118.315-4.476-4.339c-33.327-31.138-78.029-47.044-123.507-43.763-47.561 3.43-91.315 27.503-119.915 66.005-10.539 14.187-30.583 17.143-44.77 6.605s-17.144-30.583-6.606-44.77c39.694-53.436 100.52-86.903 166.687-91.674 66.176-4.774 131.136 19.631 178.001 66.846l117.884 118.707 4.57 4.902c82.231 90.764 79.497 230.491-6.959 317.553zM435.004 607.411c-66.175 4.772-131.134-19.629-178.004-66.844l-117.884-118.709-4.569-4.902c-82.23-90.765-79.494-230.49 6.963-317.555 88.15-88.764 230.775-90.014 320.446-2.799l67.593 68.058 2.189 2.436c10.206 12.608 9.408 31.142-2.347 42.82-12.544 12.45-32.802 12.382-45.257-0.158l-67.196-67.669-4.236-3.977c-64.323-58.313-163.732-56.098-225.78 6.387-63.549 63.996-64.443 167.561-2.005 232.661l117.5 118.315 4.473 4.339c33.33 31.138 78.031 47.043 123.51 43.762 47.561-3.43 91.315-27.502 119.915-66.004 10.539-14.187 30.583-17.143 44.77-6.605s17.143 30.583 6.605 44.77c-39.693 53.438-100.518 86.901-166.686 91.674z" />
<glyph unicode="&#xe95e;" glyph-name="applemusic" d="M917.138 646.497c0.263 24.895-2.458 49.731-8.104 73.979-10.708 44.253-35.869 78.033-73.633 102.795-19.259 12.381-40.821 20.735-63.393 24.558-17.459 3.006-35.116 4.7-52.83 5.067-1.351 0.102-2.804 0.338-4.188 0.44h-406.126c-5.135-0.338-10.235-0.574-15.369-0.878-25.231-1.453-50.327-4.155-74.071-13.546-45.125-17.904-77.686-49.050-96.769-93.91-6.485-15.133-9.863-31.247-12.261-47.563-1.867-13.214-2.994-26.522-3.378-39.861 0-1.081-0.236-2.094-0.337-3.141v-412.9c0.337-4.729 0.574-9.56 0.911-14.324 1.689-27.531 5.202-54.857 16.787-80.157 21.955-47.974 58.704-79.492 109.233-94.654 14.186-4.293 28.913-6.32 43.673-7.702 18.746-1.792 37.492-2.026 56.305-2.026h372.553c17.733 0 35.396 1.148 53.031 3.372 27.794 3.584 53.936 11.827 77.546 27.363 28.014 18.117 50.088 44.047 63.503 74.591 6.283 14.19 9.896 29.389 12.5 44.727 3.811 22.799 4.659 45.872 4.623 68.91-0.066 128.366 0 256.563-0.102 384.862h-0.102zM700.197 511.712v-192.955c0-14.087-1.959-27.937-8.242-40.74-9.795-19.931-25.67-32.497-46.882-38.51-11.821-3.378-23.846-5.304-36.141-5.844-32.088-1.52-59.886 20.269-65.627 51.887-2.412 13.652-0.29 27.718 6.041 40.051s16.522 22.256 29.019 28.254c10.91 5.405 22.63 8.445 34.384 10.945 12.768 2.77 25.603 5.168 38.303 8.107 9.255 2.128 15.435 7.77 17.226 17.431 0.459 2.143 0.685 4.329 0.675 6.52 0 61.312 0 122.623-0.067 183.868-0.022 2.112-0.317 4.212-0.878 6.249-1.351 5.067-5.066 8.208-10.268 7.905-5.404-0.338-10.741-1.183-16.044-2.229-25.669-5.067-51.34-10.236-77.010-15.404l-124.973-25.268c-0.541-0.102-1.080-0.338-1.621-0.44-9.356-2.601-12.734-6.857-13.173-16.552-0.067-1.419 0-2.905 0-4.391-0.067-87.897 0-175.794-0.101-263.657 0-14.188-1.588-28.241-7.262-41.446-9.389-21.621-26.007-35.138-48.435-41.655-11.821-3.379-23.981-5.405-36.31-5.808-32.425-1.221-59.277 20.268-64.851 52.155-4.729 27.43 7.769 56.921 38.978 70.095 12.058 5.067 24.657 7.837 37.424 10.472 9.694 2.027 19.422 3.918 29.048 5.979 12.936 2.804 19.692 10.911 20.266 24.12v5.067c0 99.991 0 200.049 0.067 300.039 0 4.155 0.44 8.445 1.419 12.499 2.364 9.627 9.221 15.133 18.442 17.498 8.613 2.23 17.395 3.784 26.143 5.574 24.757 5.067 49.516 9.999 74.307 14.999l76.673 15.539c22.63 4.526 45.26 9.12 67.89 13.613 7.431 1.453 14.963 2.973 22.427 3.58 10.471 0.845 17.665-5.742 18.712-16.282 0.271-2.466 0.405-5 0.405-7.534 0.068-64.521 0.068-129.109 0-193.63l0.034-0.101z" />
<glyph unicode="&#xe95f;" glyph-name="behance" d="M884.919 853.335h-745.814c-17.936 0-32.426-14.491-32.426-32.427v-745.812c0-17.935 14.49-32.424 32.426-32.424h745.814c17.935 0 32.424 14.49 32.424 32.424v745.812c0 17.936-14.49 32.427-32.424 32.427zM599.665 611.25h140.248v-34.15h-140.248v34.15zM512.012 329.644c-6.587-12.464-15.909-23.205-27.36-31.413-11.957-8.309-25.232-14.389-39.317-17.935-14.694-3.953-29.893-5.878-45.195-5.776h-167.808v345.648h163.147c16.518 0 31.515-1.52 45.195-4.357 13.579-2.837 25.13-7.701 34.858-14.288 9.627-6.587 17.227-15.403 22.597-26.347 5.269-10.843 8.005-24.422 8.005-40.534 0-17.429-3.952-31.819-11.856-43.472-8.005-11.654-19.557-21.078-35.264-28.475 21.381-6.080 37.088-16.923 47.424-32.123 10.539-15.402 15.707-33.845 15.707-55.531 0-17.632-3.343-32.731-10.133-45.398zM794.529 383.148h-180.778c0-19.659 6.789-38.506 17.024-48.64 10.336-10.032 25.13-15.098 44.485-15.098 13.984 0 25.84 3.547 35.973 10.538 10.032 6.992 16.112 14.389 18.341 22.091h60.595c-9.728-30.096-24.517-51.579-44.588-64.549-19.858-12.97-44.178-19.456-72.449-19.456-19.76 0-37.494 3.242-53.403 9.424-15.301 5.979-29.082 15.099-40.432 26.854-11.147 12.058-19.861 26.245-25.435 41.749-6.181 17.126-9.221 35.163-9.019 53.301 0 18.747 3.141 36.176 9.221 52.389 11.653 31.515 35.872 56.746 66.779 69.819 16.517 6.891 34.251 10.337 52.187 10.133 21.28 0 39.722-4.053 55.733-12.363 15.808-8.208 28.777-19.354 39.112-33.237 10.24-13.883 17.43-29.691 21.994-47.525 4.352-17.531 5.873-35.974 4.659-55.43zM670.903 480.023c-10.944 0-20.165-1.925-27.259-5.674s-12.97-8.411-17.429-13.782c-4.256-5.168-7.398-11.248-9.222-17.632-1.621-5.371-2.736-10.843-3.141-16.416h111.973c-1.621 17.531-7.701 30.501-15.808 39.621-8.512 9.019-22.192 13.883-39.115 13.883zM419.090 490.258c8.816 6.384 13.071 16.922 13.071 31.413 0.304 6.891-1.115 13.68-4.155 19.861-2.736 4.965-6.789 9.12-11.755 12.058-5.168 3.141-10.843 5.168-16.821 6.080-6.485 1.216-13.071 1.824-19.557 1.723h-71.237v-80.763h77.115c13.275-0.101 24.523 3.141 33.339 9.627zM431.046 417.298c-9.931 7.6-23.205 11.35-39.722 11.35h-82.891v-95.254h81.269c7.6 0 14.592 0.709 21.382 2.128s12.869 3.85 18.037 7.296c5.168 3.344 9.323 7.904 12.464 13.781 3.040 5.878 4.56 13.376 4.56 22.395 0 17.936-5.067 30.603-15.099 38.304z" />
<glyph unicode="&#xe960;" glyph-name="brightcove" d="M257.020 143.236l100.228-121.907h372.17c103.789 0 187.925 86.989 187.925 194.289 0 42.037-13.188 82.941-37.581 116.571l-6.634 9.143c28.314 29.27 44.215 68.969 44.215 110.364v34.398c0 63.419-24.364 124.241-67.745 169.085l-35.387 36.585c18.483-25.46 29.44-57.1 29.44-91.384 0-84.157-65.997-152.381-147.397-152.381 81.401 0 147.397-68.223 147.397-152.381 0-84.155-65.997-152.382-147.397-152.382h-439.234zM224.594 182.674v570.086h471.66c33.162 0 63.766-11.323 88.393-30.432l-147.351 152.336h-530.618v-548.571l117.915-143.419zM430.945 630.856h147.394c32.562 0 58.958-27.29 58.958-60.952s-26.396-60.953-58.958-60.953h-147.394v121.905zM430.945 387.046h147.394c32.562 0 58.958-27.29 58.958-60.953s-26.396-60.952-58.958-60.952h-147.394v121.905z" />
<glyph unicode="&#xe961;" glyph-name="calendly" d="M756.107 405.034l1.924-0.373 167.344-30.016c20.495-3.733 34.267-23.183 28.833-43.12-28.789-105.77-95.751-197.44-188.233-257.68-92.477-60.24-204.064-84.882-313.663-69.266s-209.616 70.415-281.144 154.032c-71.527 83.616-109.609 190.256-107.045 299.762s45.595 214.287 120.958 294.538c75.363 80.25 177.838 130.409 288.050 140.992s220.526-19.141 310.091-83.554c89.556-64.413 152.159-159.051 175.967-266.024 4.491-20.085-10.189-38.938-30.837-41.701l-128.395-17.024v-0.261h0.271l-0.38-0.038c-4.184-0.565-8.36-1.162-12.529-1.792l-9.552-1.493c-13.583-2.016-31.32-4.331-50.531-5.040-35.816-1.269-88.012 2.539-123.79 37.968-1.86 1.844-3.709 3.698-5.548 5.563-18.908 19.077-39.1 39.499-80.992 39.499-39.968 0-67.179-11.35-84.313-28.15-17.096-16.799-28.91-43.568-28.91-83.85 0-39.2 11.7-66.155 29.060-83.253 17.285-17.173 44.534-28.747 84.163-28.747 29.249 0 40.571 6.534 51.177 14.038 2.188 1.568 4.68 3.472 7.51 5.6 12.831 9.893 32.419 24.864 61.479 34.459 35.854 11.797 73.217 17.173 118.73 13.253l0.19 1.083 0.117 0.598zM809.925 319.467l57.329-10.267c-32.892-81.228-93.579-148.446-171.459-189.926-77.883-41.479-168.020-54.579-254.675-37.018-86.654 17.554-164.322 64.666-219.445 133.091-55.123 68.432-84.2 153.839-82.155 241.314s35.083 171.461 93.346 237.297c58.263 65.836 138.050 109.339 225.432 122.917s176.81-3.635 252.671-48.632c75.864-44.996 133.339-114.919 162.392-197.561l-59.699-7.952c-26.792 67.798-76.478 124.333-140.625 160.004s-138.798 48.276-211.275 35.676c-72.477-12.6-138.309-49.628-186.318-104.797s-75.231-125.074-77.045-197.845c-1.814-72.771 21.893-143.919 67.095-201.36s109.109-97.634 180.871-113.755c71.761-16.113 146.95-7.161 212.796 25.337s118.289 86.543 148.424 152.953l2.077-0.485 0.263 1.008zM728.743 329.958c-23.058 0.263-45.993-3.36-67.82-10.715-15.927-5.227-23.853-11.2-35.552-20.048-3.888-2.986-8.228-6.235-13.436-9.893-22.38-15.829-48.836-27.963-95.031-27.963-54.725 0-102.995 16.426-137.566 50.586-34.571 34.235-51.139 81.91-51.139 136.080 0 54.88 16.456 102.778 51.253 136.863 34.722 34.048 83.030 49.803 137.452 49.803 74.915 0 115.6-41.963 135.074-61.973v-0.037c1.774-1.867 3.397-3.509 4.83-4.928 11.927-11.797 35.212-17.322 67.67-16.128 3.888 0.149 7.733 0.374 11.508 0.672-16.962 34.929-42.211 65.283-73.593 88.478s-67.966 38.542-106.636 44.735c-38.671 6.192-78.282 3.047-115.459-9.168s-70.818-33.139-98.058-60.989c-24.035-24.552-42.505-53.889-54.178-86.057s-16.28-66.427-13.516-100.495c2.765-34.068 12.838-67.161 29.548-97.075s39.675-55.962 67.362-76.406c27.687-20.444 59.461-34.817 93.205-42.16s68.682-7.483 102.486-0.424c33.804 7.066 65.698 21.178 93.557 41.394s51.041 46.073 68.002 75.849h0.038z" />
<glyph unicode="&#xe962;" glyph-name="cashapp" d="M903.497 736.124c-8.602 23.656-22.287 45.139-40.082 62.939-17.803 17.799-39.285 31.481-62.939 40.084-44.251 14.187-84.446 14.187-166.188 14.187h-245.227c-81.066 0-121.938 0-165.511-13.512-23.69-8.638-45.195-22.372-62.996-40.231s-31.465-39.409-40.025-63.128c-13.849-43.911-13.849-84.444-13.849-165.511v-245.564c0-81.405 0-121.603 13.511-165.511 8.602-23.654 22.284-45.144 40.084-62.939s39.282-31.481 62.939-40.082c43.911-13.853 84.444-13.853 165.511-13.853h245.903c81.404 0 121.935 0 165.514 13.517 23.749 8.594 45.319 22.309 63.181 40.17s31.583 39.431 40.177 63.188c13.846 43.908 13.846 84.443 13.846 165.511v244.889c0 81.404 0 121.937-13.846 165.849zM695.088 579.732l-31.413-31.413c-3.061-2.847-7.070-4.458-11.251-4.521s-8.235 1.428-11.38 4.183c-30.422 25.693-68.944 39.809-108.764 39.858-32.765 0-65.529-10.809-65.529-40.871 0-30.4 35.129-40.534 75.663-55.733 70.933-23.644 129.706-53.369 129.706-122.951 0-75.663-58.773-127.68-154.702-133.422l-8.782-40.536c-0.776-3.723-2.812-7.066-5.766-9.465s-6.642-3.708-10.447-3.708h-60.463l-3.040 0.336c-4.328 0.973-8.1 3.606-10.501 7.336s-3.24 8.251-2.334 12.595l9.457 42.898c-36.405 9.126-69.884 27.377-97.28 53.031v0.338c-1.511 1.506-2.711 3.296-3.529 5.266s-1.24 4.084-1.24 6.218c0 2.134 0.421 4.247 1.24 6.218s2.018 3.76 3.529 5.266l33.778 32.764c3.067 2.874 7.112 4.473 11.315 4.473s8.248-1.599 11.316-4.473c30.738-29.049 71.946-45.262 114.507-44.586 43.911 0 73.298 18.578 73.298 47.965s-29.725 37.155-85.796 58.097c-59.449 21.28-115.858 51.343-115.858 121.6 0 81.742 67.893 121.6 148.284 125.316l8.444 41.547c0.786 3.692 2.835 6.995 5.795 9.338s6.644 3.58 10.418 3.498h60.124l3.378-0.338c8.782-2.027 14.525-10.471 12.498-19.253l-9.119-46.275c30.4-10.134 59.111-26.010 83.768-46.951l0.676-0.676c6.418-6.755 6.418-16.889 0-22.969z" />
<glyph unicode="&#xe963;" glyph-name="discord" d="M823.669 731.677c-0.249 0.483-0.666 0.861-1.163 1.066-58.097 26.654-119.399 45.66-182.381 56.543-0.572 0.106-1.163 0.029-1.69-0.219s-0.96-0.658-1.241-1.167c-8.348-15.152-15.925-30.714-22.705-46.629-67.891 10.306-136.949 10.306-204.84 0-6.824 15.955-14.523 31.522-23.063 46.629-0.293 0.499-0.729 0.897-1.252 1.145s-1.108 0.331-1.68 0.241c-62.988-10.86-124.297-29.868-182.382-56.545-0.497-0.211-0.916-0.571-1.2-1.030-116.159-173.468-147.979-342.671-132.369-509.775 0.044-0.41 0.17-0.812 0.37-1.17s0.471-0.673 0.796-0.929c67.638-50.081 143.293-88.305 223.734-113.050 0.567-0.168 1.172-0.161 1.733 0.022s1.055 0.534 1.41 1.009c17.277 23.508 32.587 48.399 45.771 74.423 0.181 0.358 0.285 0.753 0.304 1.148 0.018 0.402-0.048 0.805-0.194 1.178s-0.371 0.709-0.658 0.987c-0.287 0.278-0.629 0.497-1.005 0.629-24.141 9.238-47.512 20.378-69.895 33.302-0.407 0.241-0.748 0.578-0.994 0.98s-0.39 0.856-0.418 1.331c-0.028 0.468 0.061 0.936 0.257 1.368 0.197 0.424 0.497 0.797 0.873 1.083 4.71 3.518 9.337 7.148 13.88 10.879 0.399 0.328 0.881 0.538 1.392 0.608s1.032-0.007 1.503-0.218c146.635-66.923 305.388-66.923 450.285 0 0.475 0.225 1.002 0.311 1.521 0.248s1.009-0.272 1.412-0.603c4.549-3.751 9.187-7.388 13.919-10.914 0.373-0.278 0.68-0.651 0.878-1.075 0.197-0.432 0.293-0.9 0.271-1.368-0.029-0.475-0.168-0.929-0.41-1.331-0.241-0.41-0.585-0.746-0.987-0.987-22.332-13.034-45.725-24.166-69.928-33.265-0.376-0.139-0.718-0.366-1.002-0.644-0.285-0.285-0.506-0.629-0.65-1.002s-0.207-0.775-0.184-1.178c0.022-0.402 0.129-0.797 0.312-1.156 13.406-25.878 28.692-50.739 45.736-74.386 0.346-0.483 0.835-0.848 1.4-1.039s1.174-0.197 1.744-0.022c80.582 24.656 156.373 62.888 224.096 113.042 0.329 0.241 0.607 0.549 0.805 0.907 0.197 0.351 0.322 0.746 0.358 1.156 18.688 193.192-31.283 361.008-132.469 509.776zM363.415 323.685c-44.148 0-80.524 40.514-80.524 90.269s35.671 90.272 80.524 90.272c45.204 0 81.229-40.869 80.523-90.269 0-49.758-35.673-90.272-80.523-90.272zM661.138 323.685c-44.146 0-80.522 40.514-80.522 90.269s35.67 90.272 80.522 90.272c45.207 0 81.232-40.869 80.523-90.269 0-49.758-35.316-90.272-80.523-90.272z" />
</font>
</defs>
</svg>
